<?xml version="1.0" standalone="no"?>
<!DOCTYPE svg PUBLIC "-//W3C//DTD SVG 1.1//EN" "http://www.w3.org/Graphics/SVG/1.1/DTD/svg11.dtd" >
<svg xmlns="http://www.w3.org/2000/svg" xmlns:xlink="http://www.w3.org/1999/xlink" version="1.1">
<metadata>
Created by FontForge 20170731 at Wed Nov  7 13:41:13 2001
 By Aleksey,,,
Copyright (c) 1986, 1992, 1995 Adobe Systems Incorporated.  All Rights Reserved.ITC Franklin Gothic is a registered trademark of International Typeface Corporation.
</metadata>
<defs>
<font id="FranklinGothicLT-Book" horiz-adv-x="540" >
  <font-face 
    font-family="ITCFranklinGothic LT Book"
    font-weight="400"
    font-stretch="normal"
    units-per-em="1000"
    panose-1="2 0 5 3 5 0 0 2 0 4"
    ascent="800"
    descent="-200"
    x-height="508"
    cap-height="686"
    bbox="-164 -250 1014 914"
    underline-thickness="50"
    underline-position="-175"
    unicode-range="U+0020-FB02"
  />
<missing-glyph horiz-adv-x="300" 
 />
    <glyph glyph-name=".notdef" horiz-adv-x="300" 
 />
    <glyph glyph-name=".null" horiz-adv-x="0" 
 />
    <glyph glyph-name="nonmarkingreturn" horiz-adv-x="333" 
 />
    <glyph glyph-name="space" unicode=" " horiz-adv-x="300" 
 />
    <glyph glyph-name="space" unicode="&#xa0;" horiz-adv-x="300" 
 />
    <glyph glyph-name="exclam" unicode="!" horiz-adv-x="300" 
d="M123 171l-36 515h118l-39 -515h-43zM198 107v-107h-105v107h105z" />
    <glyph glyph-name="quotedbl" unicode="&#x22;" horiz-adv-x="460" 
d="M356 686v-111l-27 -135h-40l-27 135v111h94zM197 686v-111l-27 -135h-40l-27 135v111h94z" />
    <glyph glyph-name="numbersign" unicode="#" horiz-adv-x="600" 
d="M223 270h133l27 159h-133zM299 686l-36 -194h134l35 194h69l-35 -194h98v-63h-113l-27 -159h107v-63h-123l-38 -207h-66l37 207h-133l-40 -207h-65l37 207h-104v63h119l27 159h-109v63h123l36 194h67z" />
    <glyph glyph-name="dollar" unicode="$" horiz-adv-x="600" 
d="M274 608q-21 -1 -41.5 -8t-36.5 -19.5t-26 -31t-10 -42.5q0 -26 9.5 -44t25.5 -30t36.5 -19.5t42.5 -11.5v206zM335 91q24 0 47 7t41.5 20.5t30 34t11.5 46.5q0 28 -11.5 47.5t-30 32.5t-41.5 20.5t-47 10.5v-219zM274 -75v96q-75 8 -133 45.5t-82 112.5l68 26
q17 -49 55.5 -80t91.5 -34v233q-29 7 -57 16t-54 23q-35 20 -55.5 55t-20.5 77t15 73.5t40.5 53.5t59.5 34.5t72 17.5v83h61v-83q66 -5 118 -36t76 -96l-68 -23q-14 43 -48.5 65t-77.5 24v-215q32 -7 63.5 -15.5t60.5 -25.5q39 -23 61 -62.5t22 -84.5q0 -41 -19.5 -78.5
t-51.5 -61.5q-29 -22 -65 -31t-71 -13v-96h-61z" />
    <glyph glyph-name="percent" unicode="%" horiz-adv-x="700" 
d="M166 645q-25 0 -40.5 -12t-24 -30.5t-11.5 -41t-3 -44.5q0 -19 3 -41t11.5 -41t24.5 -32t42 -13t42 13t24.5 32t11.5 41t3 41q-1 22 -4.5 44.5t-12.5 41t-25 30.5t-41 12zM166 696q38 0 65 -15.5t44 -40.5t25.5 -57.5t9.5 -65.5q0 -32 -8.5 -64t-26 -57.5t-44 -41
t-63.5 -15.5t-63.5 15.5t-44 41t-26 57.5t-8.5 64q0 33 8 65.5t25 57.5t43.5 40.5t63.5 15.5zM530 296q-25 0 -40.5 -12t-24 -30.5t-11.5 -41t-3 -44.5q0 -19 3 -41t11.5 -41t24.5 -32t42 -13t42 13t24.5 32t11.5 41t3 41q-1 22 -4.5 44.5t-12.5 41t-25 30.5t-41 12z
M530 347q38 0 65 -15.5t44 -40.5t25.5 -57.5t9.5 -65.5q0 -32 -8.5 -64t-26 -57.5t-44 -41t-63.5 -15.5t-63.5 15.5t-44 41t-26 57.5t-8.5 64q0 33 8 65.5t25 57.5t43.5 40.5t63.5 15.5zM106 0l415 686h73l-415 -686h-73z" />
    <glyph glyph-name="ampersand" unicode="&#x26;" horiz-adv-x="680" 
d="M645 4q-19 -3 -38 -5t-38 -2q-21 0 -36 4.5t-27.5 13t-24 19.5t-25.5 24q-43 -35 -85 -51.5t-99 -16.5q-39 0 -80.5 12t-72.5 35q-36 27 -57 68.5t-21 86.5q0 39 14 71t38 58t56 46t69 34q-11 15 -22 33t-21 38t-16 40t-6 39q0 33 11.5 59.5t32 45.5t48.5 29.5t61 10.5
t62.5 -9.5t51 -28t34 -45.5t12.5 -62t-12 -61.5t-32 -47.5t-46.5 -36.5t-54.5 -28.5l145 -219q38 47 60.5 102t32.5 115l74 -15q-15 -70 -47 -135t-80 -119q17 -18 33 -27t42 -9q13 0 29 1t35 4v-71zM226 554q0 -14 6 -30t15 -33t19.5 -33.5t19.5 -31.5l38 19
q30 16 53.5 39.5t23.5 62.5q0 38 -27.5 62t-65.5 24q-35 0 -58.5 -22t-23.5 -57zM251 349q-26 -12 -49 -25t-39.5 -30.5t-26 -41t-9.5 -54.5q0 -35 11.5 -62t32.5 -45t49.5 -27t62.5 -9q78 0 134 54z" />
    <glyph glyph-name="quotesingle" unicode="'" horiz-adv-x="300" 
d="M197 686v-111l-27 -135h-40l-27 135v111h94z" />
    <glyph glyph-name="parenleft" unicode="(" horiz-adv-x="300" 
d="M199 -171q-72 90 -110.5 202.5t-38.5 227.5t39.5 225t108.5 202h52q-63 -94 -94.5 -202.5t-31.5 -220.5q0 -234 127 -434h-52z" />
    <glyph glyph-name="parenright" unicode=")" horiz-adv-x="300" 
d="M49 -171q127 200 127 434q0 112 -31.5 220.5t-94.5 202.5h52q69 -92 108.5 -202t39.5 -225t-38.5 -227.5t-110.5 -202.5h-52z" />
    <glyph glyph-name="asterisk" unicode="*" horiz-adv-x="600" 
d="M324 436l8 -171h-59l7 171l-147 -92l-31 51l153 80l-153 80l31 51l147 -92l-7 172h59l-8 -172l146 92l28 -51l-155 -80l155 -80l-28 -51z" />
    <glyph glyph-name="plus" unicode="+" horiz-adv-x="600" 
d="M332 547v-226h226v-65h-226v-226h-65v226h-226v65h226v226h65z" />
    <glyph glyph-name="comma" unicode="," horiz-adv-x="300" 
d="M213 12l-75 -141h-43l60 129h-52v115h110v-103z" />
    <glyph glyph-name="hyphen" unicode="-" horiz-adv-x="220" 
d="M213 226h-213v62h213v-62z" />
    <glyph glyph-name="hyphen" unicode="&#xad;" horiz-adv-x="220" 
d="M213 226h-213v62h213v-62z" />
    <glyph glyph-name="period" unicode="." horiz-adv-x="300" 
d="M210 0h-111v113h111v-113z" />
    <glyph glyph-name="slash" unicode="/" horiz-adv-x="520" 
d="M43 -171h-67l413 857h68z" />
    <glyph glyph-name="zero" unicode="0" horiz-adv-x="600" 
d="M303 56q52 0 84.5 27.5t51.5 68.5t26 88.5t7 87.5q0 43 -6.5 95.5t-25.5 98.5t-53.5 77t-91.5 31q-53 0 -85.5 -29t-50.5 -72t-24.5 -92t-6.5 -89q0 -42 6.5 -93t25.5 -95.5t53 -74t90 -29.5zM303 -10q-71 0 -121 33t-81.5 84t-46 113.5t-14.5 121.5q0 58 13.5 121
t43.5 114.5t78.5 85t119.5 33.5t121 -29.5t85 -89.5q31 -52 45 -114.5t14 -122.5q0 -57 -14.5 -119t-45.5 -113t-79.5 -84.5t-117.5 -33.5z" />
    <glyph glyph-name="one" unicode="1" horiz-adv-x="600" 
d="M556 0h-480v63h205v519q-42 -44 -88.5 -81t-100.5 -65v85q60 31 114 71t96 94h62v-623h192v-63z" />
    <glyph glyph-name="two" unicode="2" horiz-adv-x="600" 
d="M537 0h-487v71l278 218q23 21 45 42.5t39 46t27.5 52.5t10.5 61q0 32 -13.5 57t-35.5 42.5t-50 27t-57 9.5q-33 0 -62 -12t-51.5 -33t-36 -49.5t-14.5 -61.5l-80 24q19 94 84.5 147.5t162.5 53.5q45 0 87.5 -14t76.5 -40t54.5 -64t20.5 -87q0 -40 -13 -74.5t-34 -64.5
t-48 -56.5t-55 -50.5l-227 -174h378v-71z" />
    <glyph glyph-name="three" unicode="3" horiz-adv-x="600" 
d="M199 323v67h66q27 0 56 3t54 15q28 14 45 41.5t17 57.5q0 31 -12 54t-32 38t-46.5 22.5t-54.5 7.5q-55 0 -99 -29t-61 -82l-77 22q15 39 39.5 68t56.5 48.5t69.5 29.5t78.5 10q42 0 82.5 -11.5t72 -34t51 -57.5t19.5 -81q0 -28 -10.5 -53.5t-28.5 -45.5t-42 -33.5
t-51 -17.5v-2q34 -5 63 -18.5t50.5 -35t33.5 -50.5t12 -64q0 -45 -21 -84.5t-57 -65.5q-39 -29 -86.5 -40.5t-95.5 -11.5q-44 0 -84.5 10t-75 30.5t-60.5 52t-41 73.5l80 27q19 -67 65 -95.5t114 -28.5q24 0 55.5 5.5t52.5 16.5q30 17 47.5 47t17.5 64q0 32 -16 58.5
t-44 43.5q-30 19 -66 24t-71 5h-66z" />
    <glyph glyph-name="four" unicode="4" horiz-adv-x="600" 
d="M372 619l-249 -393h249v393zM372 0v160h-338v57l314 469h107v-460h112v-66h-112v-160h-83z" />
    <glyph glyph-name="five" unicode="5" horiz-adv-x="600" 
d="M500 612h-337l-15 -221q35 34 75 54t90 20t93.5 -17.5t76 -48.5t51 -74t18.5 -93q0 -57 -21 -101.5t-57 -76t-84 -48t-102 -16.5q-39 0 -77 11t-70.5 31.5t-57 50.5t-35.5 69l74 25q20 -57 63.5 -88t104.5 -31q40 0 73 12t56.5 34.5t36.5 55t13 73.5q0 35 -12 65
t-33 51.5t-50.5 34t-65.5 12.5q-51 0 -93.5 -25t-68.5 -68l-68 14l23 369h406z" />
    <glyph glyph-name="six" unicode="6" horiz-adv-x="600" 
d="M310 59q35 0 65 12t52.5 33.5t35 51t12.5 64.5q0 33 -12 62t-33 50.5t-50 34.5t-62 13q-35 0 -66.5 -13t-55.5 -35.5t-38 -53.5t-14 -66q0 -31 15 -61.5t39 -50.5q23 -22 51.5 -31.5t60.5 -9.5zM467 523q-18 48 -53.5 75.5t-89.5 27.5q-64 0 -103 -31t-60.5 -77.5
t-29 -102.5t-7.5 -105h2q12 31 32.5 56.5t47.5 43.5t59 28t66 10q48 0 89 -17.5t71 -47.5t47 -71t17 -88q0 -51 -19 -93.5t-52 -74t-77.5 -49t-94.5 -17.5q-72 0 -122.5 29t-82.5 76.5t-47 107.5t-15 122q0 63 12.5 125t43.5 118q37 66 92 97t131 31q81 0 137.5 -38.5
t82.5 -113.5z" />
    <glyph glyph-name="seven" unicode="7" horiz-adv-x="600" 
d="M199 0q0 84 17 166.5t49 160t77 149.5t99 135h-372l9 75h453v-52q-52 -63 -96 -132.5t-76 -144.5q-15 -36 -28.5 -78t-23 -86t-15 -87.5t-5.5 -82.5v-23h-88z" />
    <glyph glyph-name="eight" unicode="8" horiz-adv-x="600" 
d="M156 527q0 -27 14 -48.5t35.5 -37.5t47.5 -27t49 -16q24 7 51.5 16t51 23t39.5 34.5t16 50.5q0 32 -13.5 53t-35 34t-49 18t-54.5 5q-24 0 -51 -5.5t-49.5 -18t-37 -32.5t-14.5 -49zM198 356q-26 10 -49.5 25.5t-41 36t-28 46t-10.5 55.5q0 48 21.5 81.5t56 54.5t77 31
t83.5 10q36 0 75 -8t70 -26q38 -22 60.5 -57t22.5 -79q0 -63 -38 -101t-95 -57q31 -14 60 -30t52 -38t37 -50t14 -66q0 -53 -24 -89.5t-61.5 -60t-84 -34t-91.5 -10.5q-41 0 -85.5 8t-80.5 28q-42 22 -72.5 61.5t-30.5 88.5q0 37 14 65t37 50t52 37.5t60 27.5zM480 171
q0 34 -19 59t-47 42.5t-60.5 28.5t-60.5 19q-27 -6 -58 -17t-56.5 -28t-42.5 -41.5t-17 -56.5q0 -36 18 -60t45.5 -38t60 -19.5t61.5 -5.5q27 0 58 6t57 19.5t43.5 36t17.5 55.5z" />
    <glyph glyph-name="nine" unicode="9" horiz-adv-x="600" 
d="M293 307q33 0 62.5 13t52 35t36 51t13.5 62q0 36 -12.5 65t-35 49.5t-52.5 32t-66 11.5q-37 0 -67 -12.5t-51.5 -34t-33 -51.5t-11.5 -66q0 -35 13 -64t35.5 -49t52.5 -31t64 -11zM131 152q18 -47 57 -70.5t89 -23.5q59 0 97.5 30t61 75t31 98t8.5 100h-2
q-31 -58 -82 -90t-119 -32q-48 0 -89.5 17t-72 47t-47.5 71t-17 89q0 49 18.5 92t50.5 74t75.5 49t93.5 18q76 0 127.5 -28t83 -75t45.5 -108t14 -126t-14.5 -130.5t-47 -118.5t-85.5 -86.5t-130 -33.5q-74 0 -132 33t-83 104z" />
    <glyph glyph-name="colon" unicode=":" horiz-adv-x="300" 
d="M210 395h-111v113h111v-113zM210 0h-111v113h111v-113z" />
    <glyph glyph-name="semicolon" unicode=";" horiz-adv-x="300" 
d="M213 395h-111v113h111v-113zM213 12l-75 -141h-43l60 129h-52v115h110v-103z" />
    <glyph glyph-name="semicolon" unicode="&#x37e;" horiz-adv-x="300" 
d="M213 395h-111v113h111v-113zM213 12l-75 -141h-43l60 129h-52v115h110v-103z" />
    <glyph glyph-name="less" unicode="&#x3c;" horiz-adv-x="600" 
d="M544 450l-395 -162l395 -162v-62l-489 207v34l489 207v-62z" />
    <glyph glyph-name="equal" unicode="=" horiz-adv-x="600" 
d="M41 224h517v-65h-517v65zM41 418h517v-65h-517v65z" />
    <glyph glyph-name="greater" unicode="&#x3e;" horiz-adv-x="600" 
d="M544 271l-489 -207v62l391 162l-391 162v62l489 -207v-34z" />
    <glyph glyph-name="question" unicode="?" 
d="M312 0h-102v98h102v-98zM222 170v43q0 24 1.5 45t7.5 38.5t19 32.5t37 28l44 25q36 20 60 47.5t24 72.5q0 30 -11.5 53t-31 38.5t-45 23.5t-53.5 8q-34 0 -60.5 -11.5t-45.5 -31t-31 -46.5t-17 -58l-75 16q15 97 75.5 149.5t159.5 52.5q44 0 84.5 -12.5t71.5 -37
t49.5 -60.5t18.5 -83q0 -33 -9.5 -59.5t-26.5 -48.5t-40.5 -40t-51.5 -32q-14 -8 -34.5 -19.5t-31.5 -22.5q-14 -15 -15 -31.5t-1 -35.5v-44h-72z" />
    <glyph glyph-name="at" unicode="@" horiz-adv-x="800" 
d="M491 408q-1 10 -4.5 21t-11.5 20t-21.5 14.5t-32.5 5.5q-31 0 -49 -13t-35 -30q-12 -13 -21 -29.5t-15 -33.5t-9 -33t-3 -28q0 -16 4 -33t17 -34q14 -19 30 -25t30 -6q25 0 46 17.5t33 36.5q8 13 16.5 32t14.5 40t9 41.5t2 36.5zM535 294q-3 -11 -8 -27t-5 -24
q1 -17 10.5 -27t27.5 -10q24 0 49.5 17t46.5 45t34 65t13 78q0 36 -18.5 75t-55 72t-89.5 55.5t-122 24.5q-61 2 -120.5 -27t-105 -77t-71 -108.5t-18.5 -121.5q9 -83 53.5 -139t108 -85t139.5 -30t150 28l23 -54q-36 -13 -87 -23.5t-100 -10.5q-62 0 -122 19.5t-109 56.5
t-82.5 89.5t-40.5 117.5q-10 86 19 164.5t85.5 137t135.5 92t170 29.5q56 -3 112 -23.5t101 -56.5t74 -86t32 -110t-15.5 -109.5t-49.5 -85.5t-70 -55.5t-76 -19.5q-13 0 -29 2t-30 8.5t-24 18t-12 31.5q-9 -8 -24.5 -24t-48.5 -27q-21 -7 -43 -7q-27 0 -50.5 12t-40.5 32.5
t-26.5 46.5t-9.5 54q0 54 26 105t71 85q17 12 47.5 25t62.5 12q11 0 25 -3t27.5 -11t25.5 -22t19 -36l18 53h66z" />
    <glyph glyph-name="A" unicode="A" horiz-adv-x="560" 
d="M271 594l-106 -329h211zM552 0h-88l-69 200h-254l-61 -200h-72l222 686h99z" />
    <glyph glyph-name="B" unicode="B" horiz-adv-x="620" 
d="M81 0v686h259q40 0 73 -5t68 -27q35 -23 53.5 -58t18.5 -77q0 -59 -32 -99.5t-89 -54.5v-2q32 -7 58 -22.5t45 -38t29 -51.5t10 -62q0 -44 -15.5 -81t-50.5 -64q-39 -31 -80 -37.5t-89 -6.5h-258zM300 392q32 0 65.5 3t59.5 23q21 15 32 40t11 50q0 60 -51 91
q-23 13 -46 15t-49 2h-155v-224h133zM335 73q29 0 58 5t52 23q22 17 32.5 40.5t10.5 51.5q0 31 -13 59.5t-37 47.5q-25 20 -55.5 23t-59.5 3h-156v-253h168z" />
    <glyph glyph-name="C" unicode="C" horiz-adv-x="620" 
d="M575 214q-12 -49 -33 -90t-52 -71t-73 -46.5t-96 -16.5q-74 0 -127 32.5t-87 84t-49.5 116t-15.5 127.5q0 66 16.5 128.5t51.5 111t89 77.5t129 29q52 0 93 -16.5t71.5 -46t51 -69.5t31.5 -87l-81 -15q-9 33 -22 62t-33 51.5t-48 35.5t-66 13q-56 0 -92.5 -27t-58 -68.5
t-30 -91t-8.5 -94.5q0 -41 7.5 -87t24.5 -84q21 -46 60 -78t93 -32q39 0 68.5 13.5t50.5 37t35 54t22 64.5z" />
    <glyph glyph-name="D" unicode="D" horiz-adv-x="660" 
d="M297 73q60 0 106.5 17.5t80.5 69.5q26 39 38 88.5t12 96.5q0 53 -14.5 105t-48.5 94q-35 44 -77.5 57t-96.5 13h-126v-541h126zM85 686h217q37 0 69 -4.5t61 -15.5t55.5 -29.5t50.5 -47.5q45 -52 64 -114.5t19 -129.5q0 -63 -17 -123.5t-54 -112.5q-42 -58 -95.5 -83.5
t-124.5 -25.5h-245v686z" />
    <glyph glyph-name="E" unicode="E" horiz-adv-x="560" 
d="M529 0h-444v686h434v-74h-348v-218h276v-69h-276v-251h358v-74z" />
    <glyph glyph-name="F" unicode="F" horiz-adv-x="480" 
d="M82 0v686h420v-74h-334v-218h277v-69h-277v-325h-86z" />
    <glyph glyph-name="G" unicode="G" horiz-adv-x="660" 
d="M600 -5h-53l-23 85q-32 -47 -83 -68.5t-107 -21.5q-69 0 -120.5 25.5t-93.5 80.5q-39 54 -55.5 114t-16.5 126q0 67 18 132t54.5 115.5t92.5 81.5t132 31q99 0 161.5 -52t86.5 -145l-81 -20q-13 65 -59 105t-114 40q-58 0 -96.5 -26.5t-61 -68t-31.5 -92t-9 -97.5
q0 -45 9 -93.5t30 -88.5q23 -44 66 -71t94 -27q40 0 71.5 13t54 36t34.5 55.5t12 71.5v38h-171v72h259v-351z" />
    <glyph glyph-name="H" unicode="H" horiz-adv-x="660" 
d="M489 0v326h-318v-326h-86v686h86v-285h318v285h86v-686h-86z" />
    <glyph glyph-name="I" unicode="I" horiz-adv-x="260" 
d="M87 0v686h86v-686h-86z" />
    <glyph glyph-name="J" unicode="J" horiz-adv-x="400" 
d="M323 224q0 -43 -6 -86.5t-34 -78.5q-30 -39 -74.5 -54t-91.5 -15q-50 0 -100 14v70q22 -5 43.5 -7.5t44.5 -2.5q29 0 60.5 7t49.5 32q19 26 20.5 58t1.5 63v462h86v-462z" />
    <glyph glyph-name="K" unicode="K" horiz-adv-x="620" 
d="M533 0l-204 378l-157 -195v-183h-86v686h86v-398l309 398h93l-185 -240l239 -446h-95z" />
    <glyph glyph-name="L" unicode="L" horiz-adv-x="500" 
d="M489 0h-405v686h86v-610h319v-76z" />
    <glyph glyph-name="M" unicode="M" horiz-adv-x="820" 
d="M742 0h-86v599h-4l-217 -599h-58l-222 599h-4v-599h-72v686h128l207 -549l202 549h126v-686z" />
    <glyph glyph-name="N" unicode="N" horiz-adv-x="660" 
d="M583 0h-84l-349 598v-598h-72v686h108l325 -559v559h72v-686z" />
    <glyph glyph-name="O" unicode="O" horiz-adv-x="660" 
d="M331 60q55 0 92 28t59 70.5t31 93t9 94.5q0 46 -9 95.5t-32 91.5q-23 41 -61.5 66.5t-86.5 25.5q-57 0 -95 -27.5t-60 -70t-31 -93.5t-9 -97q0 -44 10 -93t32.5 -90t59.5 -67.5t91 -26.5zM331 -10q-74 0 -127.5 30t-88 79.5t-51 111.5t-16.5 127q0 64 16 128t50.5 115
t88 83t127.5 32q72 0 125.5 -30t88 -79t51.5 -111t17 -125t-16.5 -127.5t-51 -116t-87.5 -84.5t-126 -33z" />
    <glyph glyph-name="P" unicode="P" horiz-adv-x="560" 
d="M295 350q31 0 58 6t51 29q19 19 28.5 44t9.5 51q0 31 -11.5 59.5t-36.5 48.5q-22 17 -44.5 21.5t-48.5 4.5h-151v-264h145zM64 0v686h230q45 0 87.5 -8.5t77.5 -37.5q34 -29 52 -72.5t18 -87.5q0 -40 -15.5 -78.5t-44.5 -66.5q-35 -34 -76.5 -45t-88.5 -11h-154v-279h-86
z" />
    <glyph glyph-name="Q" unicode="Q" horiz-adv-x="660" 
d="M45 338q0 62 14 124.5t50 114.5q41 59 95 89t126 30q75 0 128.5 -30.5t88.5 -80.5t51.5 -113.5t16.5 -128.5q0 -54 -12 -108.5t-37.5 -101.5t-66.5 -82t-98 -50v-15q0 -42 25.5 -58.5t62.5 -16.5q43 0 81 7v-68q-18 -6 -36.5 -9.5t-37.5 -3.5q-77 0 -120 37.5t-45 115.5
q-74 2 -128 31.5t-89 77.5t-52 110t-17 129zM137 336q0 -45 8.5 -93.5t29.5 -89t57 -66.5t92 -26q59 0 97.5 25.5t61 66t31.5 90t9 98.5q0 48 -9.5 98t-31.5 91.5t-59.5 68t-92.5 26.5q-52 0 -95.5 -29t-65.5 -82q-17 -39 -24.5 -87t-7.5 -91z" />
    <glyph glyph-name="R" unicode="R" horiz-adv-x="620" 
d="M328 367q35 0 63.5 6t54.5 32q18 18 26.5 41.5t8.5 48.5q0 30 -11.5 54t-36.5 41q-23 16 -45.5 19t-49.5 3h-171v-245h161zM484 0l-127 297h-190v-297h-86v686h257q42 0 81.5 -8t74.5 -34t54 -66t19 -84q0 -61 -34 -110t-94 -66l135 -318h-90z" />
    <glyph glyph-name="S" unicode="S" horiz-adv-x="620" 
d="M120 202q21 -72 76 -105.5t127 -33.5q31 0 65 7.5t58 26.5q20 15 31 39t11 49q0 26 -10 44.5t-26 31.5t-37.5 21.5t-43.5 14.5l-114 28q-35 8 -66 19t-58 36q-27 24 -41.5 57.5t-14.5 69.5q0 49 19.5 85t52 59t74.5 34t87 11q87 0 151.5 -42t92.5 -126l-78 -21
q-6 28 -22.5 50.5t-40 38t-51 24t-54.5 8.5q-24 0 -50 -6.5t-47.5 -20t-35.5 -34t-14 -48.5q0 -29 10.5 -47.5t27.5 -30.5t39.5 -18.5t46.5 -12.5l103 -25q34 -8 66.5 -19t58.5 -34q32 -26 48 -60.5t16 -75.5q0 -47 -19.5 -87t-57.5 -69t-85 -39.5t-94 -10.5
q-106 0 -174.5 47.5t-103.5 147.5z" />
    <glyph glyph-name="T" unicode="T" horiz-adv-x="500" 
d="M293 0h-86v611h-195v75h476v-75h-195v-611z" />
    <glyph glyph-name="U" unicode="U" horiz-adv-x="640" 
d="M557 252q0 -51 -8 -98t-42 -88q-35 -42 -83.5 -59t-101.5 -17q-51 0 -100 13.5t-84 52.5q-19 21 -29.5 44.5t-16 48t-7 50.5t-1.5 53v434h86v-434q0 -15 0.5 -33t3 -35.5t8 -34.5t14.5 -30q10 -15 25.5 -25.5t33.5 -16.5t37 -8.5t37 -2.5q33 0 67 11.5t56 37.5
q25 29 29 65.5t4 71.5v434h72v-434z" />
    <glyph glyph-name="V" unicode="V" horiz-adv-x="560" 
d="M321 0h-82l-232 686h90l191 -566l190 566h75z" />
    <glyph glyph-name="W" unicode="W" horiz-adv-x="820" 
d="M646 0h-86l-149 532l-140 -532h-87l-174 686h88l137 -556h2l145 556h69l156 -556h2l127 556h75z" />
    <glyph glyph-name="X" unicode="X" 
d="M316 372l219 -372h-97l-173 292l-180 -292h-80l220 355l-196 331h96l151 -254l153 254h79z" />
    <glyph glyph-name="Y" unicode="Y" horiz-adv-x="560" 
d="M323 289v-289h-86v289l-229 397h100l182 -316l184 316h78z" />
    <glyph glyph-name="Z" unicode="Z" 
d="M512 0h-484v74l373 541h-356v71h456v-57l-377 -555h388v-74z" />
    <glyph glyph-name="bracketleft" unicode="[" horiz-adv-x="300" 
d="M65 -171v857h178v-51h-109v-752h109v-54h-178z" />
    <glyph glyph-name="backslash" unicode="\" horiz-adv-x="520" 
d="M539 -171h-67l-414 857h68z" />
    <glyph glyph-name="bracketright" unicode="]" horiz-adv-x="300" 
d="M235 -171h-178v54h109v752h-109v51h178v-857z" />
    <glyph glyph-name="asciicircum" unicode="^" horiz-adv-x="600" 
d="M277 686h46l174 -428h-61l-136 333l-136 -333h-60z" />
    <glyph glyph-name="underscore" unicode="_" horiz-adv-x="500" 
d="M500 -75v-50h-500v50h500z" />
    <glyph glyph-name="grave" unicode="`" horiz-adv-x="380" 
d="M69 651l34 65l201 -119l-20 -40z" />
    <glyph glyph-name="a" unicode="a" 
d="M393 315v22q0 67 -30.5 95t-98.5 28q-24 0 -47 -4t-41.5 -14.5t-32 -28t-18.5 -43.5l-73 12q5 40 27 66.5t53 42.5t67.5 23t71.5 7q42 0 84.5 -8.5t71.5 -41.5q16 -17 24.5 -37t12.5 -41.5t4.5 -44t0.5 -44.5v-197q0 -28 1.5 -55t9.5 -52h-78l-9 95q-27 -55 -72 -80
t-106 -25q-36 0 -68 10t-56 29.5t-38.5 48t-14.5 66.5q0 46 26 84t68 57q43 20 95 25t100 5h66zM393 256h-65q-30 0 -66 -3.5t-67 -15.5t-52 -35t-21 -62q0 -24 9.5 -40.5t24.5 -27.5t35 -16t41 -5q36 0 65.5 14t51 38t33 55t11.5 65v33z" />
    <glyph glyph-name="b" unicode="b" 
d="M100 0h-38v686h78v-262h4q24 45 59.5 71t89.5 26q47 0 88.5 -22.5t67.5 -60.5t37 -85t11 -92q0 -48 -12 -96.5t-37.5 -87.5t-66 -63t-96.5 -24q-51 0 -92 27t-64 70zM413 248q0 32 -6 68.5t-21 68t-41 52.5t-66 21q-30 0 -55.5 -14t-44 -37t-29 -53t-10.5 -62v-61
q0 -77 29 -120q18 -26 48 -42t62 -16q39 0 65 18.5t41 47.5t21.5 63t6.5 66z" />
    <glyph glyph-name="c" unicode="c" horiz-adv-x="480" 
d="M446 168q-7 -39 -23 -71.5t-41 -56t-58 -37t-74 -13.5q-57 0 -97.5 22.5t-67 59.5t-39 84.5t-12.5 97.5q0 49 12.5 97t39 86t67.5 61t98 23q83 0 132.5 -48.5t62.5 -127.5l-72 -13q-3 25 -12 47.5t-24 39t-36.5 26.5t-48.5 10q-40 0 -66 -18.5t-41.5 -47.5t-22 -63.5
t-6.5 -66.5q0 -31 5.5 -66.5t20 -65.5t40 -50t65.5 -20q57 0 86.5 36t39.5 88z" />
    <glyph glyph-name="d" unicode="d" 
d="M395 686h78v-686h-71v90h-2q-24 -48 -63 -74t-96 -26q-51 0 -89 22.5t-66 63.5q-26 39 -37 85t-11 93q0 48 12 95.5t37.5 85.5t65.5 62t95 24q49 0 84.5 -22t62.5 -60v247zM395 301q0 26 -5 52t-21 49q-19 27 -50 42t-64 15t-60 -18t-43 -46q-17 -30 -23.5 -63.5
t-6.5 -68.5q0 -31 5 -67.5t19.5 -67.5t40 -52t66.5 -21q34 0 63 17t49 44q18 25 24 50t6 54v81z" />
    <glyph glyph-name="e" unicode="e" 
d="M408 306q0 31 -8.5 59.5t-25.5 49.5t-42.5 33.5t-59.5 12.5q-32 0 -58 -13t-44.5 -34.5t-29 -49.5t-11.5 -58h279zM486 139q-11 -35 -32.5 -62.5t-50 -47t-63 -29.5t-70.5 -10q-58 0 -101.5 21.5t-73 57.5t-44 84t-14.5 101q0 52 15.5 100.5t45 85.5t73.5 59t101 22
q59 0 102 -23t70 -61t39 -87t11 -102h-369q0 -30 3.5 -58t17.5 -57q18 -36 54 -56.5t76 -20.5q50 0 84.5 26.5t51.5 71.5z" />
    <glyph glyph-name="f" unicode="f" horiz-adv-x="300" 
d="M296 446h-118v-446h-78v446h-90v62h90q-2 37 4 71.5t22 60.5t42.5 41.5t66.5 15.5q15 0 40 -1.5t51 -6.5v-63q-16 3 -31.5 5.5t-32.5 2.5q-32 0 -49.5 -10.5t-25 -28.5t-8.5 -40.5t-1 -46.5h118v-62z" />
    <glyph glyph-name="g" unicode="g" horiz-adv-x="500" 
d="M89 -49q0 -26 17.5 -42t43 -25t52.5 -12t47 -3q29 0 67 5t64 17q21 10 32.5 23.5t11.5 36.5q0 18 -9.5 29.5t-24.5 18t-34.5 9.5t-39.5 4q-11 1 -32 1q-20 0 -44.5 1t-49.5 2t-46 4q-23 -11 -39 -26.5t-16 -42.5zM125 347q0 -52 31 -82t83 -30q51 0 82 31t31 82
q0 24 -9 44.5t-24.5 35t-36 23t-43.5 8.5q-50 0 -82 -31.5t-32 -80.5zM44 348q0 41 16 73.5t43 54.5t62.5 33.5t73.5 11.5q26 0 52.5 -5.5t50.5 -16.5q10 54 37.5 71t79.5 17l20 -1l1 -63h-8q-17 0 -32 -1.5t-27 -7.5t-20 -17.5t-11 -31.5q23 -26 36 -58t13 -67
q0 -38 -18 -71t-47 -56q-28 -21 -61 -30t-68 -9q-17 0 -36 4t-33 4q-18 0 -36 -13.5t-18 -33.5q0 -18 10.5 -28.5t27.5 -14.5q26 -6 59 -6q34 0 61 -2q16 -1 36 -1.5t40 -2.5t39 -5t34 -9q35 -14 56.5 -44t21.5 -68q0 -48 -25.5 -77t-63.5 -44.5t-81.5 -20t-80.5 -4.5
q-35 0 -75.5 3t-73.5 17q-37 15 -62 42.5t-25 69.5q0 40 20.5 65t56.5 38q-22 14 -35.5 32.5t-13.5 47.5q0 38 19.5 57.5t50.5 33.5q-66 52 -66 134z" />
    <glyph glyph-name="h" unicode="h" 
d="M392 0v296q0 23 -1.5 50.5t-9.5 50.5q-11 29 -35.5 44.5t-55.5 15.5q-30 0 -57 -15.5t-46 -38.5q-26 -32 -32.5 -67t-6.5 -75v-261h-78v686h78v-272h3q24 51 61 79t97 28q41 0 76.5 -18t57.5 -53q23 -38 25 -75t2 -79v-296h-78z" />
    <glyph glyph-name="i" unicode="i" horiz-adv-x="240" 
d="M163 598h-86v88h86v-88zM159 0h-78v508h78v-508z" />
    <glyph glyph-name="j" unicode="j" horiz-adv-x="220" 
d="M148 598h-86v88h86v-88zM143 -9q0 -29 -4 -60.5t-22 -57.5q-20 -29 -52.5 -41t-66.5 -12q-19 0 -37.5 2.5t-36.5 7.5v63q14 -4 28 -6t29 -2q28 0 45 7.5t25.5 21.5t11 33.5t2.5 43.5v517h78v-517z" />
    <glyph glyph-name="k" unicode="k" horiz-adv-x="500" 
d="M409 0l-148 283l-109 -126v-157h-78v686h78v-439l235 259h84l-158 -178l179 -328h-83z" />
    <glyph glyph-name="l" unicode="l" horiz-adv-x="240" 
d="M81 0v686h78v-686h-78z" />
    <glyph glyph-name="m" unicode="m" horiz-adv-x="820" 
d="M139 508v-98h2q20 46 59 78.5t93 32.5q56 0 93.5 -33.5t49.5 -87.5q21 53 63 87t101 34q39 0 73.5 -20t54.5 -53q19 -32 21.5 -71t2.5 -74v-303h-78v303q0 26 -1 52t-13 49q-13 25 -36 39t-49 14q-29 0 -55 -16t-43 -41q-22 -31 -25 -60.5t-3 -65.5v-274h-78v322
q0 21 -3 44t-14 42q-14 23 -36.5 36t-48.5 13t-51 -15t-41 -35q-20 -25 -25.5 -54.5t-5.5 -61.5v-291h-78v508h71z" />
    <glyph glyph-name="n" unicode="n" 
d="M143 414h2q22 48 63 77.5t95 29.5q46 0 83 -19.5t61 -59.5q10 -16 15 -36t7 -41.5t2 -43.5v-40v-281h-78v314q0 23 -1.5 48.5t-12.5 45.5q-13 22 -37.5 34t-49.5 12q-31 0 -58 -13.5t-47 -37.5q-25 -30 -32.5 -64.5t-7.5 -72.5v-266h-78v508h74v-94z" />
    <glyph glyph-name="o" unicode="o" 
d="M129 258q0 -35 6 -72t23 -67q17 -29 46.5 -46.5t64.5 -17.5q39 0 69 19t48 54q16 30 20.5 63.5t4.5 66.5q0 36 -6 72t-26 67q-18 28 -47.5 44t-62.5 16q-37 0 -67.5 -19.5t-47.5 -52.5q-14 -28 -19.5 -62t-5.5 -65zM42 258q0 53 15 100.5t44 83.5t73 57.5t101 21.5
q56 0 98 -22.5t69.5 -59.5t41.5 -84.5t14 -97.5q0 -53 -15 -101.5t-45 -85.5t-74 -58.5t-102 -21.5q-57 0 -98.5 23t-68.5 60.5t-40 86t-13 98.5z" />
    <glyph glyph-name="p" unicode="p" 
d="M156 -166h-78v674h71v-98h2q20 51 60 81t97 30q53 0 91 -24t62.5 -62t36 -84.5t11.5 -92.5q0 -44 -9 -89.5t-32 -83.5q-26 -42 -67 -68.5t-93 -26.5q-53 0 -89.5 23t-62.5 67v-246zM421 255q0 31 -5.5 65.5t-20.5 64t-40.5 48.5t-64.5 19q-26 0 -48 -10.5t-39.5 -28
t-29.5 -39.5t-17 -46v-113q0 -32 10 -61t28 -51t42.5 -34.5t53.5 -12.5q32 0 60 17.5t44 44.5q17 29 22 66t5 71z" />
    <glyph glyph-name="q" unicode="q" 
d="M432 508h40v-674h-78v262h-3q-20 -49 -58.5 -77.5t-93.5 -28.5t-93 24t-62 62t-34.5 85t-10.5 93q0 47 12 94.5t37 86t64.5 62.5t93.5 24q29 0 51.5 -6t41 -18t33.5 -30t29 -41zM393 283q0 35 -9 70t-33 62q-17 19 -41.5 31t-50.5 12q-39 0 -64.5 -20t-41 -50.5
t-21.5 -66t-6 -66.5t6 -66t21 -64t40.5 -48.5t64.5 -19.5q38 0 66.5 22t45.5 54q14 25 18.5 52t4.5 55v43z" />
    <glyph glyph-name="r" unicode="r" horiz-adv-x="320" 
d="M142 508v-119h2q9 26 22 50t31 42.5t41.5 29.5t54.5 11l29 -2v-75h-16q-45 0 -77 -21t-54 -59q-16 -28 -20.5 -53.5t-4.5 -55.5v-256h-78v508h70z" />
    <glyph glyph-name="s" unicode="s" horiz-adv-x="520" 
d="M119 150q4 -26 20 -44t38 -29.5t47 -16.5t48 -5q20 0 42 4t40 13.5t29.5 26t11.5 40.5q0 20 -9.5 33.5t-23.5 22t-32 13.5t-34 8l-83 15q-29 6 -56 16t-47.5 26.5t-33 40.5t-12.5 58q0 39 16.5 67.5t43.5 46.5t61 26.5t69 8.5q34 0 66 -7t59 -22t47 -39.5t29 -59.5
l-72 -15q-15 42 -50.5 61t-79.5 19q-17 0 -36 -3.5t-35 -12.5t-26.5 -23t-10.5 -35t8 -34t20.5 -21t29 -12t33.5 -7l74 -13q28 -5 55.5 -12t50.5 -23q30 -20 45.5 -50t15.5 -65q0 -43 -19 -73t-49.5 -48.5t-68 -27t-74.5 -8.5t-73 8t-66 25.5t-52 45t-32 66.5z" />
    <glyph glyph-name="t" unicode="t" horiz-adv-x="320" 
d="M312 -4l-75 -6q-42 0 -69.5 11.5t-44 33.5t-23.5 52.5t-7 68.5v294h-90v62h90v126l78 8v-134h113v-62h-113v-307q0 -45 16.5 -67.5t64.5 -22.5l60 5v-62z" />
    <glyph glyph-name="u" unicode="u" 
d="M468 0h-71v101h-2q-19 -48 -61 -79.5t-95 -31.5q-38 0 -72 14t-58 43q-26 32 -33 72.5t-7 79.5v309h78v-309q0 -22 3 -47.5t14 -45.5q11 -21 34.5 -34.5t47.5 -13.5q32 0 58.5 13.5t46.5 38.5q23 29 31 60.5t8 67.5v270h78v-508z" />
    <glyph glyph-name="v" unicode="v" horiz-adv-x="440" 
d="M264 0h-82l-181 508h87l142 -413l139 413h70z" />
    <glyph glyph-name="w" unicode="w" horiz-adv-x="660" 
d="M506 0h-64l-113 377l-104 -377h-65l-152 508h79l110 -379l106 379h57l114 -380l114 380h64z" />
    <glyph glyph-name="x" unicode="x" horiz-adv-x="440" 
d="M343 0l-128 206l-133 -206h-77l171 263l-154 245h91l108 -174l111 174h76l-148 -228l175 -280h-92z" />
    <glyph glyph-name="y" unicode="y" horiz-adv-x="420" 
d="M226 -48q-11 -28 -21.5 -50t-30.5 -44q-23 -25 -46 -32t-57 -7q-15 0 -29.5 2.5t-28.5 6.5v63q13 -3 26 -5t26 -2q30 0 48.5 11t30.5 29t19.5 40t15.5 45l-176 499h81l136 -382l139 382h66z" />
    <glyph glyph-name="z" unicode="z" horiz-adv-x="420" 
d="M397 465l-279 -404h279v-61h-374v61l270 385h-249v62h353v-43z" />
    <glyph glyph-name="braceleft" unicode="{" horiz-adv-x="300" 
d="M33 294q25 5 41 15.5t24 27t11 39t3 50.5l-1 156q0 25 9 45.5t22 35t27 22.5t24 8l73 3v-61l-44 -4q-22 -2 -29 -16t-7 -43l1 -162q0 -37 -10 -64t-23 -44.5t-25 -27t-15 -11.5q3 -3 15 -12t25 -27t23 -45t10 -64l-1 -163q0 -27 7 -41.5t29 -16.5l44 -6v-59l-73 3
q-10 0 -24 8t-27 22t-22 34.5t-9 46.5l1 156q0 28 -3 50.5t-11 39t-24 27.5t-41 16v62z" />
    <glyph glyph-name="bar" unicode="|" horiz-adv-x="260" 
d="M160 -250h-60v1000h60v-1000z" />
    <glyph glyph-name="braceright" unicode="}" horiz-adv-x="300" 
d="M267 232q-26 -5 -41.5 -16t-23.5 -27.5t-11 -39t-3 -50.5l1 -156q0 -26 -9 -46.5t-22 -34.5t-27 -22t-24 -8l-73 -3v59l44 6q22 2 29 16.5t7 41.5l-1 163q0 37 10 64t23 45t25 27t15 12q-3 2 -15 11.5t-25 27t-23 44.5t-10 64l1 162q0 29 -7 43t-29 16l-44 4v61l73 -3
q10 0 24 -8t27 -22.5t22 -35t9 -45.5l-1 -156q0 -28 3 -50.5t11 -39t23.5 -27t41.5 -15.5v-62z" />
    <glyph glyph-name="asciitilde" unicode="~" horiz-adv-x="600" 
d="M56 211q2 35 12.5 66t25.5 50q21 26 43 34.5t41.5 8t34.5 -7t22 -10.5l147 -79q23 -13 44 -12t32 15q9 12 12.5 34t3.5 36h68q4 -38 -8.5 -64.5t-25.5 -43.5q-29 -38 -71 -43t-101 27l-120 67q-23 13 -40.5 11.5t-29 -13.5t-17 -32t-5.5 -44h-68z" />
    <glyph glyph-name="Euro" horiz-adv-x="600" 
d="M548 561q-65 65 -147 65q-72 0 -118 -64q-38 -52 -53 -130h275l-19 -58h-263q-1 -5 -1 -12v-17q0 -30 1 -35h241l-20 -58h-217q14 -77 54 -128q49 -63 127 -63q45 0 81 18q27 13 66 50v-96q-62 -41 -147 -41q-113 0 -186 78q-65 71 -84 182h-75l18 58h51q-1 5 -1 34v17
q0 8 1 13h-69l18 58h58q16 110 83 183q74 80 186 80q53 0 89 -13q35 -12 79 -43z" />
    <glyph glyph-name="Euro" unicode="&#x20ac;" horiz-adv-x="600" 
d="M548 561q-65 65 -147 65q-72 0 -118 -64q-38 -52 -53 -130h275l-19 -58h-263q-1 -5 -1 -12v-17q0 -30 1 -35h241l-20 -58h-217q14 -77 54 -128q49 -63 127 -63q45 0 81 18q27 13 66 50v-96q-62 -41 -147 -41q-113 0 -186 78q-65 71 -84 182h-75l18 58h51q-1 5 -1 34v17
q0 8 1 13h-69l18 58h58q16 110 83 183q74 80 186 80q53 0 89 -13q35 -12 79 -43z" />
    <glyph glyph-name="Zcaron" 
d="M172 884l95 -63l96 63l74 -10l-170 -124l-164 124zM512 0h-484v74l373 541h-356v71h456v-57l-377 -555h388v-74z" />
    <glyph glyph-name="Zcaron" unicode="&#x17d;" 
d="M172 884l95 -63l96 63l74 -10l-170 -124l-164 124zM512 0h-484v74l373 541h-356v71h456v-57l-377 -555h388v-74z" />
    <glyph glyph-name="zcaron" horiz-adv-x="420" 
d="M122 706l95 -63l96 63l74 -10l-170 -124l-164 124zM397 465l-279 -404h279v-61h-374v61l270 385h-249v62h353v-43z" />
    <glyph glyph-name="zcaron" unicode="&#x17e;" horiz-adv-x="420" 
d="M122 706l95 -63l96 63l74 -10l-170 -124l-164 124zM397 465l-279 -404h279v-61h-374v61l270 385h-249v62h353v-43z" />
    <glyph glyph-name="exclamdown" unicode="&#xa1;" horiz-adv-x="300" 
d="M169 344l36 -515h-118l39 515h43zM198 508v-107h-105v107h105z" />
    <glyph glyph-name="cent" unicode="&#xa2;" horiz-adv-x="600" 
d="M278 528q-30 -8 -49 -27.5t-29.5 -45t-14.5 -54.5t-4 -56q0 -26 4.5 -53t16 -50.5t30 -41t46.5 -24.5v352zM278 114q-44 6 -77.5 27.5t-55.5 53t-33 71t-11 81.5q0 43 10 84t32 74t55 55.5t80 28.5v126h61v-126q31 -3 58 -16.5t48.5 -34.5t35.5 -48t18 -57l-68 -13
q-3 16 -10.5 35t-19.5 35t-27.5 27t-34.5 13v-354q19 3 34.5 13.5t27.5 25.5t19.5 32.5t10.5 35.5l68 -11q-13 -64 -53 -107t-107 -51v-143h-61v143z" />
    <glyph glyph-name="sterling" unicode="&#xa3;" horiz-adv-x="600" 
d="M83 324v59h104l-9 93q0 41 8.5 76.5t32.5 68.5q26 35 62.5 55t81.5 20q54 0 95 -24.5t72 -68.5l-57 -43q-20 26 -44 46.5t-61 20.5q-24 0 -42.5 -10t-31.5 -26.5t-20 -37.5t-7 -43l11 -127h147v-59h-141l4 -66q0 -56 -17 -102.5t-63 -80.5h148q28 0 53.5 2t48 10
t41.5 23.5t33 42.5l66 -43q-28 -58 -77.5 -84t-112.5 -26h-405v75h23q32 1 61 4.5t57 23.5q32 23 45 53t13 69l-9 99h-110z" />
    <glyph glyph-name="currency" unicode="&#xa4;" horiz-adv-x="600" 
d="M396 340q0 26 -10 45t-25.5 31.5t-34 18t-34.5 4.5q-16 1 -34.5 -4.5t-33.5 -18t-24.5 -32.5t-8.5 -47q-1 -27 8.5 -47t24.5 -32.5t33.5 -18.5t34.5 -4q16 -2 34.5 4t34 19t25.5 33.5t10 48.5zM143 554l58 -59q30 15 54.5 21.5t46.5 6t44.5 -7.5t49.5 -20l56 54l59 -61
l-58 -55q8 -13 16 -31.5t13 -53.5q1 -38 -11 -64t-22 -42l57 -57l-58 -55l-53 55q-25 -16 -47.5 -24.5t-45.5 -9t-47.5 6t-52.5 19.5l-54 -51l-55 59l49 51q-17 21 -25 49.5t-7.5 57t10 54t27.5 40.5l-58 60z" />
    <glyph glyph-name="yen" unicode="&#xa5;" horiz-adv-x="600" 
d="M549 425v-59h-162l-44 -77v-3h206v-60h-206v-226h-85v226h-206v60h206v3l-45 77h-161v59h127l-151 261h101l181 -316l184 316h78l-150 -261h127z" />
    <glyph glyph-name="brokenbar" unicode="&#xa6;" horiz-adv-x="260" 
d="M160 175v-350h-60v350h60zM160 675v-350h-60v350h60z" />
    <glyph glyph-name="section" unicode="&#xa7;" horiz-adv-x="600" 
d="M235 382q-14 -7 -28.5 -17t-25.5 -22t-18 -27t-7 -32q0 -25 11.5 -42t29.5 -28.5t39 -19t41 -12.5l87 -24q28 11 50 38.5t22 57.5q0 34 -23.5 57t-78.5 40zM144 -27q9 -23 25 -41t36.5 -30t44 -18.5t47.5 -6.5t49.5 6.5t47 20t35 33.5t13.5 48q0 25 -11 42t-28 28.5
t-38 18.5t-40 12l-79 21q-30 8 -60 18.5t-54.5 27.5t-39.5 42t-15 62q0 53 27.5 88t69.5 62q-40 22 -61 54.5t-21 79.5q0 40 16.5 69.5t43.5 48.5t61.5 28t70.5 9q34 0 67 -7.5t61.5 -24t49.5 -42t31 -60.5l-76 -8q-16 42 -51.5 63t-80.5 21q-20 0 -40.5 -4.5t-37.5 -15
t-28 -27t-11 -39.5q0 -27 13 -46t33 -31.5t43.5 -20.5t45.5 -14l70 -20q27 -8 51.5 -19.5t43.5 -29t30 -41.5t11 -55q0 -43 -24.5 -77t-56.5 -60q43 -18 70 -54.5t27 -84.5q0 -44 -18 -77.5t-53 -59.5q-35 -29 -75.5 -39.5t-85.5 -10.5q-39 0 -76 8.5t-68 26.5t-55 46
t-38 67z" />
    <glyph glyph-name="dieresis" unicode="&#xa8;" horiz-adv-x="400" 
d="M174 666q0 -23 -15.5 -37.5t-37.5 -14.5t-36.5 15.5t-14.5 36.5q0 22 15.5 36t36.5 14q20 0 36 -14.5t16 -35.5zM329 666q0 -23 -15.5 -37.5t-37.5 -14.5t-36.5 15.5t-14.5 36.5q0 22 15.5 36t36.5 14q20 0 36 -14.5t16 -35.5z" />
    <glyph glyph-name="copyright" unicode="&#xa9;" horiz-adv-x="760" 
d="M565 279q-3 -32 -18 -57t-38 -43t-52 -27.5t-60 -9.5q-45 0 -82.5 15.5t-63.5 43.5t-40.5 65t-14.5 81t13.5 81t39 64t62.5 42t83 15q66 0 113 -34.5t58 -97.5h-67q-8 42 -36.5 60t-64.5 18q-68 0 -99.5 -42t-31.5 -108q0 -65 33 -107t100 -42q35 0 64 19.5t35 63.5h67z
M381 627q-62 0 -115.5 -22t-93.5 -60.5t-63 -90t-23 -109.5q0 -60 23 -112.5t63 -91t93.5 -60.5t115.5 -22q61 0 114 22t93 60.5t63 91t23 112.5q0 58 -23 109.5t-63 90t-93 60.5t-114 22zM381 -10q-75 0 -141.5 28t-116 76t-78 112.5t-28.5 138.5q0 72 28.5 136t78 112
t116 75.5t141.5 27.5t141 -27.5t115 -75.5t77.5 -112t28.5 -136q0 -74 -28.5 -138.5t-77.5 -112.5t-115 -76t-141 -28z" />
    <glyph glyph-name="ordfeminine" unicode="&#xaa;" horiz-adv-x="360" 
d="M45 612q3 24 17.5 40t34.5 26t43.5 14t46.5 4q27 0 55 -5t47 -25q20 -21 23.5 -48t3.5 -53v-92q0 -29 3 -53t6 -41h-63v43q-14 -21 -42.5 -34t-68.5 -13q-23 0 -44 6t-37 17.5t-25 29t-9 40.5q0 28 15 52.5t47 39.5q10 5 25 9t31.5 7t33 4.5t30.5 1.5h36v22
q0 20 -16.5 31.5t-54.5 11.5q-32 0 -53.5 -7.5t-27.5 -33.5zM218 536q-18 0 -39.5 -2.5t-40 -10t-31 -20.5t-12.5 -35q0 -18 19.5 -31t49.5 -13q19 0 35.5 8.5t28.5 21.5t19 29t7 31v22h-36z" />
    <glyph glyph-name="guillemotleft" unicode="&#xab;" horiz-adv-x="400" 
d="M200 257l86 142h45l-53 -142l53 -146h-44zM69 257l86 142h45l-53 -142l53 -146h-44z" />
    <glyph glyph-name="logicalnot" unicode="&#xac;" horiz-adv-x="600" 
d="M494 321h-453v65h518v-270h-65v205z" />
    <glyph glyph-name="registered" unicode="&#xae;" horiz-adv-x="760" 
d="M87 489q0 -35 13.5 -65.5t36.5 -53.5t53.5 -36.5t65.5 -13.5t65.5 13.5t53.5 36.5t36.5 53.5t13.5 65.5q0 36 -13.5 67t-36.5 54t-53.5 36t-65.5 13t-65.5 -13t-53.5 -36t-36.5 -54t-13.5 -67zM50 489q0 43 16.5 81t44.5 66t65.5 44t79.5 16t79.5 -16t65.5 -44t44.5 -66
t16.5 -81q0 -42 -16 -79.5t-44 -65.5t-65.5 -44.5t-80.5 -16.5t-80.5 16.5t-65.5 44.5t-44 65.5t-16 79.5zM216 504h49q12 0 27 5.5t15 25.5q0 10 -8 19.5t-30 9.5h-53v-60zM216 379h-47v221h103q5 0 18.5 -1t28 -7t26 -19.5t11.5 -38.5q0 -16 -5 -26.5t-11.5 -17t-13.5 -10
l-11 -5.5l41 -96h-50l-36 88h-54v-88z" />
    <glyph glyph-name="macron" unicode="&#xaf;" horiz-adv-x="460" 
d="M387 632h-315v59h315v-59z" />
    <glyph glyph-name="macron" unicode="&#x2c9;" horiz-adv-x="460" 
d="M387 632h-315v59h315v-59z" />
    <glyph glyph-name="degree" unicode="&#xb0;" horiz-adv-x="400" 
d="M289 545q0 37 -26.5 63.5t-63.5 26.5q-18 0 -34.5 -7t-28.5 -19.5t-19 -29t-7 -34.5q0 -37 26 -63t63 -26t63.5 26t26.5 63zM350 546q0 -31 -12 -58.5t-32.5 -47.5t-47.5 -32t-58 -12t-58.5 12t-47.5 32t-32 47.5t-12 58.5t11.5 58t32 47.5t48 32.5t58.5 12t58 -12
t47.5 -32.5t32.5 -47.5t12 -58z" />
    <glyph glyph-name="plusminus" unicode="&#xb1;" horiz-adv-x="600" 
d="M41 65h517v-65h-517v65zM332 632v-226h226v-65h-226v-226h-65v226h-226v65h226v226h65z" />
    <glyph glyph-name="twosuperior" unicode="&#xb2;" horiz-adv-x="360" 
d="M338 278h-317v47l175 127q33 24 57 52.5t24 68.5q0 19 -8 33.5t-21.5 24.5t-31 15t-36.5 5q-21 0 -40 -8t-33 -20.5t-22 -29t-8 -32.5l-56 14q13 57 55.5 89t105.5 32q29 0 57 -8.5t49.5 -24t35 -38.5t13.5 -52q0 -48 -27 -85t-66 -63l-148 -100h242v-47z" />
    <glyph glyph-name="threesuperior" unicode="&#xb3;" horiz-adv-x="360" 
d="M248 493q42 -5 71.5 -31t29.5 -69q0 -27 -14 -50.5t-37 -39.5q-26 -17 -56 -24t-62 -7q-57 0 -103.5 24.5t-66.5 75.5l52 20q13 -40 42.5 -57t74.5 -17q15 0 35.5 1.5t32.5 9.5q18 13 29 28.5t11 35.5q0 41 -39 58q-40 17 -85 17h-43v46h43q17 0 35.5 2.5t32.5 11.5
q17 11 28.5 23.5t11.5 30.5q0 38 -26.5 54t-63.5 16q-36 0 -64.5 -17.5t-39.5 -49.5l-50 17q19 48 61.5 71t96.5 23q28 0 54 -7t46.5 -20.5t33 -34.5t12.5 -49q0 -34 -24.5 -59t-58.5 -31v-2z" />
    <glyph glyph-name="acute" unicode="&#xb4;" horiz-adv-x="380" 
d="M139 557l-20 40l201 119l34 -65z" />
    <glyph glyph-name="mu" unicode="&#xb5;" 
d="M468 0h-71v101h-2q-19 -48 -61 -79.5t-95 -31.5q-55 0 -92 31v-187h-78v674h78v-309q0 -22 3 -47.5t14 -45.5q11 -21 34.5 -34.5t47.5 -13.5q32 0 58.5 13.5t46.5 38.5q23 29 31 60.5t8 67.5v270h78v-508z" />
    <glyph glyph-name="mu" unicode="&#x3bc;" 
d="M468 0h-71v101h-2q-19 -48 -61 -79.5t-95 -31.5q-55 0 -92 31v-187h-78v674h78v-309q0 -22 3 -47.5t14 -45.5q11 -21 34.5 -34.5t47.5 -13.5q32 0 58.5 13.5t46.5 38.5q23 29 31 60.5t8 67.5v270h78v-508z" />
    <glyph glyph-name="paragraph" unicode="&#xb6;" 
d="M507 621h-58v-809h-65v809h-81v-809h-65v403q-5 1 -22 1.5t-40.5 8t-50 25.5t-49.5 53q-21 32 -31.5 64t-12 62t4 58.5t14.5 52.5q16 43 43.5 71.5t56 45t55 23t41.5 6.5h260v-65z" />
    <glyph glyph-name="periodcentered" unicode="&#xb7;" horiz-adv-x="300" 
d="M205 232h-111v113h111v-113z" />
    <glyph glyph-name="periodcentered" unicode="&#x2219;" horiz-adv-x="300" 
d="M205 232h-111v113h111v-113z" />
    <glyph glyph-name="cedilla" unicode="&#xb8;" horiz-adv-x="320" 
d="M153 -34q16 0 33.5 -3t32.5 -10.5t24.5 -20.5t9.5 -32q0 -20 -8 -34t-21.5 -23t-30.5 -13t-34 -4q-24 0 -47.5 5t-43.5 18l11 32q17 -8 35 -13t37 -5q15 0 33 7.5t18 26.5q0 13 -6.5 20t-16 11t-20.5 5t-20 1l-32 -3l22 69h34z" />
    <glyph glyph-name="onesuperior" unicode="&#xb9;" horiz-adv-x="360" 
d="M336 284h-312v46h129v303q-23 -26 -53.5 -48t-65.5 -39v51q36 18 70.5 44t60.5 55h50v-366h121v-46z" />
    <glyph glyph-name="ordmasculine" unicode="&#xba;" horiz-adv-x="360" 
d="M180 640q-42 0 -64.5 -31t-22.5 -73q0 -20 5 -38.5t15.5 -33.5t27 -24t39.5 -9t39.5 9t27 24t15.5 33.5t5 38.5q0 42 -22.5 73t-64.5 31zM180 696q36 0 63.5 -13t46.5 -35t28.5 -51t9.5 -61q0 -30 -8.5 -59t-26.5 -51.5t-46 -36.5t-67 -14t-67 14t-46 36.5t-26.5 51.5
t-8.5 59q0 32 9.5 61t28.5 51t46.5 35t63.5 13z" />
    <glyph glyph-name="guillemotright" unicode="&#xbb;" horiz-adv-x="400" 
d="M113 111h-44l53 146l-53 142h45l86 -142zM244 111h-44l53 146l-53 142h45l86 -142z" />
    <glyph glyph-name="onequarter" unicode="&#xbc;" horiz-adv-x="900" 
d="M743 358l-156 -216h156v216zM743 0v96h-226v34l204 282h84v-270h65v-46h-65v-96h-62zM267 0l415 686h73l-415 -686h-73zM342 274h-312v46h129v303q-23 -26 -53.5 -48t-65.5 -39v51q36 18 70.5 44t60.5 55h50v-366h121v-46z" />
    <glyph glyph-name="onehalf" unicode="&#xbd;" horiz-adv-x="900" 
d="M342 274h-312v46h129v303q-23 -26 -53.5 -48t-65.5 -39v51q36 18 70.5 44t60.5 55h50v-366h121v-46zM870 0h-317v47l175 127q33 24 57 52.5t24 68.5q0 19 -8 33.5t-21.5 24.5t-31 15t-36.5 5q-21 0 -40 -8t-33 -20.5t-22 -29t-8 -32.5l-56 14q13 57 55.5 89t105.5 32
q29 0 57 -8.5t49.5 -24t35 -38.5t13.5 -52q0 -48 -27 -85t-66 -63l-148 -100h242v-47zM234 0l415 686h73l-415 -686h-73z" />
    <glyph glyph-name="threequarters" unicode="&#xbe;" horiz-adv-x="900" 
d="M257 0l415 686h73l-415 -686h-73zM268 483q42 -5 71.5 -31t29.5 -69q0 -27 -14 -50.5t-37 -39.5q-26 -17 -56 -24t-62 -7q-57 0 -103.5 24.5t-66.5 75.5l52 20q13 -40 42.5 -57t74.5 -17q15 0 35.5 1.5t32.5 9.5q18 13 29 28.5t11 35.5q0 41 -39 58q-40 17 -85 17h-43v46
h43q17 0 35.5 2.5t32.5 11.5q17 11 28.5 23.5t11.5 30.5q0 38 -26.5 54t-63.5 16q-36 0 -64.5 -17.5t-39.5 -49.5l-50 17q19 48 61.5 71t96.5 23q28 0 54 -7t46.5 -20.5t33 -34.5t12.5 -49q0 -34 -24.5 -59t-58.5 -31v-2zM743 358l-156 -216h156v216zM743 0v96h-226v34
l204 282h84v-270h65v-46h-65v-96h-62z" />
    <glyph glyph-name="questiondown" unicode="&#xbf;" 
d="M339 410h-102v98h102v-98zM327 344v-43q0 -24 -1.5 -45t-7.5 -38.5t-19 -32.5t-37 -28l-44 -25q-36 -20 -60 -47.5t-24 -72.5q0 -30 11.5 -53t31 -38.5t45 -23.5t53.5 -8q34 0 60.5 11.5t45.5 31t31 46.5t17 58l75 -16q-15 -97 -75.5 -149.5t-159.5 -52.5
q-44 0 -84.5 12.5t-71.5 37t-49.5 60.5t-18.5 83q0 65 36 108t92 72q14 8 34.5 19.5t31.5 22.5q14 15 15 31.5t1 35.5v44h72z" />
    <glyph glyph-name="Agrave" unicode="&#xc0;" horiz-adv-x="560" 
d="M99 829l34 65l201 -119l-20 -40zM271 594l-106 -329h211zM552 0h-88l-69 200h-254l-61 -200h-72l222 686h99z" />
    <glyph glyph-name="Aacute" unicode="&#xc1;" horiz-adv-x="560" 
d="M244 735l-20 40l201 119l34 -65zM271 594l-106 -329h211zM552 0h-88l-69 200h-254l-61 -200h-72l222 686h99z" />
    <glyph glyph-name="Acircumflex" unicode="&#xc2;" horiz-adv-x="560" 
d="M378 761l-93 62l-98 -62l-73 10l171 123l162 -123zM271 594l-106 -329h211zM552 0h-88l-69 200h-254l-61 -200h-72l222 686h99z" />
    <glyph glyph-name="Atilde" unicode="&#xc3;" horiz-adv-x="560" 
d="M459 802q-23 -23 -47.5 -34.5t-56.5 -11.5q-23 0 -36.5 5.5t-33.5 15.5t-37.5 17.5t-40.5 7.5q-20 0 -35 -8.5t-28 -22.5l-43 31q20 26 49.5 41.5t62.5 15.5q22 0 41.5 -7t38.5 -15t36 -15t33 -7t31.5 8.5t29.5 16.5zM271 594l-106 -329h211zM552 0h-88l-69 200h-254
l-61 -200h-72l222 686h99z" />
    <glyph glyph-name="Adieresis" unicode="&#xc4;" horiz-adv-x="560" 
d="M254 824q0 -23 -15.5 -37.5t-37.5 -14.5t-36.5 15.5t-14.5 36.5q0 22 15.5 36t36.5 14q20 0 36 -14.5t16 -35.5zM409 824q0 -23 -15.5 -37.5t-37.5 -14.5t-36.5 15.5t-14.5 36.5q0 22 15.5 36t36.5 14q20 0 36 -14.5t16 -35.5zM271 594l-106 -329h211zM552 0h-88l-69 200
h-254l-61 -200h-72l222 686h99z" />
    <glyph glyph-name="Aring" unicode="&#xc5;" horiz-adv-x="560" 
d="M280 778q18 0 32 13.5t14 31.5q0 19 -13.5 32.5t-32.5 13.5q-20 0 -33 -13t-13 -33t13.5 -32.5t32.5 -12.5zM279 734q-18 0 -34 7t-28.5 19t-19.5 28.5t-7 34.5q0 38 25.5 64.5t63.5 26.5t64.5 -26.5t26.5 -64.5q0 -37 -26.5 -63t-64.5 -26zM271 594l-106 -329h211z
M552 0h-88l-69 200h-254l-61 -200h-72l222 686h99z" />
    <glyph glyph-name="AE" unicode="&#xc6;" horiz-adv-x="960" 
d="M451 608l-194 -329h194v329zM922 0h-471v212h-231l-126 -212h-83l408 686h490v-74h-372v-218h301v-69h-301v-251h385v-74z" />
    <glyph glyph-name="Ccedilla" unicode="&#xc7;" horiz-adv-x="620" 
d="M575 214q-12 -49 -33 -90t-52 -71t-73 -46.5t-96 -16.5h-1l-7 -24q16 0 33.5 -3t32.5 -10.5t24.5 -20.5t9.5 -32q0 -20 -8 -34t-21.5 -23t-30.5 -13t-34 -4q-24 0 -47.5 5t-43.5 18l11 32q17 -8 35 -13t37 -5q15 0 33 7.5t18 26.5q0 13 -6.5 20t-16 11t-20.5 5t-20 1
l-32 -3l20 61q-65 7 -111.5 42t-76 85t-43.5 110.5t-14 120.5q0 66 16.5 128.5t51.5 111t89 77.5t129 29q52 0 93 -16.5t71.5 -46t51 -69.5t31.5 -87l-81 -15q-9 33 -22 62t-33 51.5t-48 35.5t-66 13q-56 0 -92.5 -27t-58 -68.5t-30 -91t-8.5 -94.5q0 -41 7.5 -87t24.5 -84
q21 -46 60 -78t93 -32q39 0 68.5 13.5t50.5 37t35 54t22 64.5z" />
    <glyph glyph-name="Egrave" unicode="&#xc8;" horiz-adv-x="560" 
d="M139 829l34 65l201 -119l-20 -40zM529 0h-444v686h434v-74h-348v-218h276v-69h-276v-251h358v-74z" />
    <glyph glyph-name="Eacute" unicode="&#xc9;" horiz-adv-x="560" 
d="M269 735l-20 40l201 119l34 -65zM529 0h-444v686h434v-74h-348v-218h276v-69h-276v-251h358v-74z" />
    <glyph glyph-name="Ecircumflex" unicode="&#xca;" horiz-adv-x="560" 
d="M398 761l-93 62l-98 -62l-73 10l171 123l162 -123zM529 0h-444v686h434v-74h-348v-218h276v-69h-276v-251h358v-74z" />
    <glyph glyph-name="Edieresis" unicode="&#xcb;" horiz-adv-x="560" 
d="M274 824q0 -23 -15.5 -37.5t-37.5 -14.5t-36.5 15.5t-14.5 36.5q0 22 15.5 36t36.5 14q20 0 36 -14.5t16 -35.5zM429 824q0 -23 -15.5 -37.5t-37.5 -14.5t-36.5 15.5t-14.5 36.5q0 22 15.5 36t36.5 14q20 0 36 -14.5t16 -35.5zM529 0h-444v686h434v-74h-348v-218h276v-69
h-276v-251h358v-74z" />
    <glyph glyph-name="Igrave" unicode="&#xcc;" horiz-adv-x="260" 
d="M-31 829l34 65l201 -119l-20 -40zM87 0v686h86v-686h-86z" />
    <glyph glyph-name="Iacute" unicode="&#xcd;" horiz-adv-x="260" 
d="M99 735l-20 40l201 119l34 -65zM87 0v686h86v-686h-86z" />
    <glyph glyph-name="Icircumflex" unicode="&#xce;" horiz-adv-x="260" 
d="M208 761l-93 62l-98 -62l-73 10l171 123l162 -123zM87 0v686h86v-686h-86z" />
    <glyph glyph-name="Idieresis" unicode="&#xcf;" horiz-adv-x="260" 
d="M94 824q0 -23 -15.5 -37.5t-37.5 -14.5t-36.5 15.5t-14.5 36.5q0 22 15.5 36t36.5 14q20 0 36 -14.5t16 -35.5zM249 824q0 -23 -15.5 -37.5t-37.5 -14.5t-36.5 15.5t-14.5 36.5q0 22 15.5 36t36.5 14q20 0 36 -14.5t16 -35.5zM87 0v686h86v-686h-86z" />
    <glyph glyph-name="Eth" unicode="&#xd0;" horiz-adv-x="660" 
d="M171 73h126q60 0 106.5 17.5t80.5 69.5q26 39 38 88.5t12 96.5q0 53 -14.5 105t-48.5 94q-35 44 -77.5 57t-96.5 13h-126v-220h163v-69h-163v-252zM85 325h-67v69h67v292h217q37 0 69 -4.5t61 -15.5t55.5 -29.5t50.5 -47.5q45 -52 64 -114.5t19 -129.5q0 -63 -17 -123.5
t-54 -112.5q-42 -58 -95.5 -83.5t-124.5 -25.5h-245v325z" />
    <glyph glyph-name="Ntilde" unicode="&#xd1;" horiz-adv-x="660" 
d="M509 802q-23 -23 -47.5 -34.5t-56.5 -11.5q-23 0 -36.5 5.5t-33.5 15.5t-37.5 17.5t-40.5 7.5q-20 0 -35 -8.5t-28 -22.5l-43 31q20 26 49.5 41.5t62.5 15.5q22 0 41.5 -7t38.5 -15t36 -15t33 -7t31.5 8.5t29.5 16.5zM583 0h-84l-349 598v-598h-72v686h108l325 -559v559
h72v-686z" />
    <glyph glyph-name="Ograve" unicode="&#xd2;" horiz-adv-x="660" 
d="M139 829l34 65l201 -119l-20 -40zM331 60q55 0 92 28t59 70.5t31 93t9 94.5q0 46 -9 95.5t-32 91.5q-23 41 -61.5 66.5t-86.5 25.5q-57 0 -95 -27.5t-60 -70t-31 -93.5t-9 -97q0 -44 10 -93t32.5 -90t59.5 -67.5t91 -26.5zM331 -10q-74 0 -127.5 30t-88 79.5t-51 111.5
t-16.5 127q0 64 16 128t50.5 115t88 83t127.5 32q72 0 125.5 -30t88 -79t51.5 -111t17 -125t-16.5 -127.5t-51 -116t-87.5 -84.5t-126 -33z" />
    <glyph glyph-name="Oacute" unicode="&#xd3;" horiz-adv-x="660" 
d="M289 735l-20 40l201 119l34 -65zM331 60q55 0 92 28t59 70.5t31 93t9 94.5q0 46 -9 95.5t-32 91.5q-23 41 -61.5 66.5t-86.5 25.5q-57 0 -95 -27.5t-60 -70t-31 -93.5t-9 -97q0 -44 10 -93t32.5 -90t59.5 -67.5t91 -26.5zM331 -10q-74 0 -127.5 30t-88 79.5t-51 111.5
t-16.5 127q0 64 16 128t50.5 115t88 83t127.5 32q72 0 125.5 -30t88 -79t51.5 -111t17 -125t-16.5 -127.5t-51 -116t-87.5 -84.5t-126 -33z" />
    <glyph glyph-name="Ocircumflex" unicode="&#xd4;" horiz-adv-x="660" 
d="M428 761l-93 62l-98 -62l-73 10l171 123l162 -123zM331 60q55 0 92 28t59 70.5t31 93t9 94.5q0 46 -9 95.5t-32 91.5q-23 41 -61.5 66.5t-86.5 25.5q-57 0 -95 -27.5t-60 -70t-31 -93.5t-9 -97q0 -44 10 -93t32.5 -90t59.5 -67.5t91 -26.5zM331 -10q-74 0 -127.5 30
t-88 79.5t-51 111.5t-16.5 127q0 64 16 128t50.5 115t88 83t127.5 32q72 0 125.5 -30t88 -79t51.5 -111t17 -125t-16.5 -127.5t-51 -116t-87.5 -84.5t-126 -33z" />
    <glyph glyph-name="Otilde" unicode="&#xd5;" horiz-adv-x="660" 
d="M509 812q-23 -23 -47.5 -34.5t-56.5 -11.5q-23 0 -36.5 5.5t-33.5 15.5t-37.5 17.5t-40.5 7.5q-20 0 -35 -8.5t-28 -22.5l-43 31q20 26 49.5 41.5t62.5 15.5q22 0 41.5 -7t38.5 -15t36 -15t33 -7t31.5 8.5t29.5 16.5zM331 60q55 0 92 28t59 70.5t31 93t9 94.5
q0 46 -9 95.5t-32 91.5q-23 41 -61.5 66.5t-86.5 25.5q-57 0 -95 -27.5t-60 -70t-31 -93.5t-9 -97q0 -44 10 -93t32.5 -90t59.5 -67.5t91 -26.5zM331 -10q-74 0 -127.5 30t-88 79.5t-51 111.5t-16.5 127q0 64 16 128t50.5 115t88 83t127.5 32q72 0 125.5 -30t88 -79
t51.5 -111t17 -125t-16.5 -127.5t-51 -116t-87.5 -84.5t-126 -33z" />
    <glyph glyph-name="Odieresis" unicode="&#xd6;" horiz-adv-x="660" 
d="M304 824q0 -23 -15.5 -37.5t-37.5 -14.5t-36.5 15.5t-14.5 36.5q0 22 15.5 36t36.5 14q20 0 36 -14.5t16 -35.5zM459 824q0 -23 -15.5 -37.5t-37.5 -14.5t-36.5 15.5t-14.5 36.5q0 22 15.5 36t36.5 14q20 0 36 -14.5t16 -35.5zM331 60q55 0 92 28t59 70.5t31 93t9 94.5
q0 46 -9 95.5t-32 91.5q-23 41 -61.5 66.5t-86.5 25.5q-57 0 -95 -27.5t-60 -70t-31 -93.5t-9 -97q0 -44 10 -93t32.5 -90t59.5 -67.5t91 -26.5zM331 -10q-74 0 -127.5 30t-88 79.5t-51 111.5t-16.5 127q0 64 16 128t50.5 115t88 83t127.5 32q72 0 125.5 -30t88 -79
t51.5 -111t17 -125t-16.5 -127.5t-51 -116t-87.5 -84.5t-126 -33z" />
    <glyph glyph-name="multiply" unicode="&#xd7;" horiz-adv-x="600" 
d="M88 547l212 -213l212 213l46 -46l-212 -213l212 -213l-46 -46l-212 213l-212 -213l-46 46l212 213l-212 213z" />
    <glyph glyph-name="Oslash" unicode="&#xd8;" horiz-adv-x="660" 
d="M535 598q39 -50 58 -114.5t19 -132.5q0 -63 -16.5 -127.5t-51 -116t-87.5 -84.5t-126 -33q-54 0 -97 16.5t-76 45.5l-62 -91h-65l90 131q-38 51 -55.5 114.5t-17.5 131.5q0 64 16 128t50.5 115t88 83t127.5 32q51 0 92.5 -15t73.5 -43l63 91h66zM451 573q-23 24 -53 38
t-65 14q-57 0 -95 -27.5t-60 -70t-31 -93.5t-9 -97q0 -41 8 -85t27 -84zM205 118q22 -26 53 -42t73 -16q55 0 92 28t59 70.5t31 93t9 94.5t-8 91.5t-29 87.5z" />
    <glyph glyph-name="Ugrave" unicode="&#xd9;" horiz-adv-x="640" 
d="M179 829l34 65l201 -119l-20 -40zM557 252q0 -51 -8 -98t-42 -88q-35 -42 -83.5 -59t-101.5 -17q-51 0 -100 13.5t-84 52.5q-19 21 -29.5 44.5t-16 48t-7 50.5t-1.5 53v434h86v-434q0 -15 0.5 -33t3 -35.5t8 -34.5t14.5 -30q10 -15 25.5 -25.5t33.5 -16.5t37 -8.5
t37 -2.5q33 0 67 11.5t56 37.5q25 29 29 65.5t4 71.5v434h72v-434z" />
    <glyph glyph-name="Uacute" unicode="&#xda;" horiz-adv-x="640" 
d="M309 735l-20 40l201 119l34 -65zM557 252q0 -51 -8 -98t-42 -88q-35 -42 -83.5 -59t-101.5 -17q-51 0 -100 13.5t-84 52.5q-19 21 -29.5 44.5t-16 48t-7 50.5t-1.5 53v434h86v-434q0 -15 0.5 -33t3 -35.5t8 -34.5t14.5 -30q10 -15 25.5 -25.5t33.5 -16.5t37 -8.5t37 -2.5
q33 0 67 11.5t56 37.5q25 29 29 65.5t4 71.5v434h72v-434z" />
    <glyph glyph-name="Ucircumflex" unicode="&#xdb;" horiz-adv-x="640" 
d="M418 761l-93 62l-98 -62l-73 10l171 123l162 -123zM557 252q0 -51 -8 -98t-42 -88q-35 -42 -83.5 -59t-101.5 -17q-51 0 -100 13.5t-84 52.5q-19 21 -29.5 44.5t-16 48t-7 50.5t-1.5 53v434h86v-434q0 -15 0.5 -33t3 -35.5t8 -34.5t14.5 -30q10 -15 25.5 -25.5
t33.5 -16.5t37 -8.5t37 -2.5q33 0 67 11.5t56 37.5q25 29 29 65.5t4 71.5v434h72v-434z" />
    <glyph glyph-name="Udieresis" unicode="&#xdc;" horiz-adv-x="640" 
d="M294 824q0 -23 -15.5 -37.5t-37.5 -14.5t-36.5 15.5t-14.5 36.5q0 22 15.5 36t36.5 14q20 0 36 -14.5t16 -35.5zM449 824q0 -23 -15.5 -37.5t-37.5 -14.5t-36.5 15.5t-14.5 36.5q0 22 15.5 36t36.5 14q20 0 36 -14.5t16 -35.5zM557 252q0 -51 -8 -98t-42 -88
q-35 -42 -83.5 -59t-101.5 -17q-51 0 -100 13.5t-84 52.5q-19 21 -29.5 44.5t-16 48t-7 50.5t-1.5 53v434h86v-434q0 -15 0.5 -33t3 -35.5t8 -34.5t14.5 -30q10 -15 25.5 -25.5t33.5 -16.5t37 -8.5t37 -2.5q33 0 67 11.5t56 37.5q25 29 29 65.5t4 71.5v434h72v-434z" />
    <glyph glyph-name="Yacute" unicode="&#xdd;" horiz-adv-x="560" 
d="M269 735l-20 40l201 119l34 -65zM323 289v-289h-86v289l-229 397h100l182 -316l184 316h78z" />
    <glyph glyph-name="Thorn" unicode="&#xde;" horiz-adv-x="560" 
d="M150 149v-149h-86v686h86v-130h144q45 0 87.5 -8.5t77.5 -37.5q34 -29 52 -72.5t18 -87.5q0 -40 -15.5 -78.5t-44.5 -66.5q-35 -34 -76.5 -45t-88.5 -11h-154zM295 220q31 0 58 6t51 29q19 19 28.5 44t9.5 51q0 31 -11.5 59.5t-36.5 48.5q-22 17 -44.5 21.5t-48.5 4.5
h-151v-264h145z" />
    <glyph glyph-name="germandbls" unicode="&#xdf;" horiz-adv-x="580" 
d="M144 -32h-81v420h-53v61h53q1 49 15 94t41.5 79t69 54t99.5 20q32 0 65.5 -9.5t60.5 -27.5t44.5 -44.5t17.5 -60.5q0 -36 -18 -62t-46 -42.5t-62.5 -24.5t-66.5 -8h-18q-11 0 -11 -8q0 -6 9.5 -12.5t22 -12t24.5 -9.5t16 -5q35 -11 72.5 -27t68.5 -36q75 -49 75 -135
q0 -39 -18 -74t-48 -60q-30 -26 -69.5 -37t-79.5 -11q-29 0 -57 4.5t-56 10.5l22 55q20 -3 39.5 -6.5t39.5 -3.5q23 0 46.5 5.5t42.5 18.5q21 15 36.5 38.5t15.5 49.5q0 41 -25 63.5t-60 37.5l-102 43q-14 6 -30 13.5t-29.5 18t-22.5 23.5t-9 30q0 11 5 25.5t11 24.5
q7 12 15.5 14t23.5 3q22 2 49 8t51 17.5t40.5 29.5t16.5 44q0 20 -9 34.5t-24 24.5t-33 14.5t-36 4.5q-41 0 -68.5 -14t-44.5 -37.5t-24 -55t-7 -65.5v-495z" />
    <glyph glyph-name="agrave" unicode="&#xe0;" 
d="M149 651l34 65l201 -119l-20 -40zM393 315v22q0 67 -30.5 95t-98.5 28q-24 0 -47 -4t-41.5 -14.5t-32 -28t-18.5 -43.5l-73 12q5 40 27 66.5t53 42.5t67.5 23t71.5 7q42 0 84.5 -8.5t71.5 -41.5q16 -17 24.5 -37t12.5 -41.5t4.5 -44t0.5 -44.5v-197q0 -28 1.5 -55
t9.5 -52h-78l-9 95q-27 -55 -72 -80t-106 -25q-36 0 -68 10t-56 29.5t-38.5 48t-14.5 66.5q0 46 26 84t68 57q43 20 95 25t100 5h66zM393 256h-65q-30 0 -66 -3.5t-67 -15.5t-52 -35t-21 -62q0 -24 9.5 -40.5t24.5 -27.5t35 -16t41 -5q36 0 65.5 14t51 38t33 55t11.5 65v33z
" />
    <glyph glyph-name="aacute" unicode="&#xe1;" 
d="M234 557l-20 40l201 119l34 -65zM393 315v22q0 67 -30.5 95t-98.5 28q-24 0 -47 -4t-41.5 -14.5t-32 -28t-18.5 -43.5l-73 12q5 40 27 66.5t53 42.5t67.5 23t71.5 7q42 0 84.5 -8.5t71.5 -41.5q16 -17 24.5 -37t12.5 -41.5t4.5 -44t0.5 -44.5v-197q0 -28 1.5 -55t9.5 -52
h-78l-9 95q-27 -55 -72 -80t-106 -25q-36 0 -68 10t-56 29.5t-38.5 48t-14.5 66.5q0 46 26 84t68 57q43 20 95 25t100 5h66zM393 256h-65q-30 0 -66 -3.5t-67 -15.5t-52 -35t-21 -62q0 -24 9.5 -40.5t24.5 -27.5t35 -16t41 -5q36 0 65.5 14t51 38t33 55t11.5 65v33z" />
    <glyph glyph-name="acircumflex" unicode="&#xe2;" 
d="M358 583l-93 62l-98 -62l-73 10l171 123l162 -123zM393 315v22q0 67 -30.5 95t-98.5 28q-24 0 -47 -4t-41.5 -14.5t-32 -28t-18.5 -43.5l-73 12q5 40 27 66.5t53 42.5t67.5 23t71.5 7q42 0 84.5 -8.5t71.5 -41.5q16 -17 24.5 -37t12.5 -41.5t4.5 -44t0.5 -44.5v-197
q0 -28 1.5 -55t9.5 -52h-78l-9 95q-27 -55 -72 -80t-106 -25q-36 0 -68 10t-56 29.5t-38.5 48t-14.5 66.5q0 46 26 84t68 57q43 20 95 25t100 5h66zM393 256h-65q-30 0 -66 -3.5t-67 -15.5t-52 -35t-21 -62q0 -24 9.5 -40.5t24.5 -27.5t35 -16t41 -5q36 0 65.5 14t51 38
t33 55t11.5 65v33z" />
    <glyph glyph-name="atilde" unicode="&#xe3;" 
d="M439 634q-23 -23 -47.5 -34.5t-56.5 -11.5q-23 0 -36.5 5.5t-33.5 15.5t-37.5 17.5t-40.5 7.5q-20 0 -35 -8.5t-28 -22.5l-43 31q20 26 49.5 41.5t62.5 15.5q22 0 41.5 -7t38.5 -15t36 -15t33 -7t31.5 8.5t29.5 16.5zM393 315v22q0 67 -30.5 95t-98.5 28q-24 0 -47 -4
t-41.5 -14.5t-32 -28t-18.5 -43.5l-73 12q5 40 27 66.5t53 42.5t67.5 23t71.5 7q42 0 84.5 -8.5t71.5 -41.5q16 -17 24.5 -37t12.5 -41.5t4.5 -44t0.5 -44.5v-197q0 -28 1.5 -55t9.5 -52h-78l-9 95q-27 -55 -72 -80t-106 -25q-36 0 -68 10t-56 29.5t-38.5 48t-14.5 66.5
q0 46 26 84t68 57q43 20 95 25t100 5h66zM393 256h-65q-30 0 -66 -3.5t-67 -15.5t-52 -35t-21 -62q0 -24 9.5 -40.5t24.5 -27.5t35 -16t41 -5q36 0 65.5 14t51 38t33 55t11.5 65v33z" />
    <glyph glyph-name="adieresis" unicode="&#xe4;" 
d="M244 666q0 -23 -15.5 -37.5t-37.5 -14.5t-36.5 15.5t-14.5 36.5q0 22 15.5 36t36.5 14q20 0 36 -14.5t16 -35.5zM399 666q0 -23 -15.5 -37.5t-37.5 -14.5t-36.5 15.5t-14.5 36.5q0 22 15.5 36t36.5 14q20 0 36 -14.5t16 -35.5zM393 315v22q0 67 -30.5 95t-98.5 28
q-24 0 -47 -4t-41.5 -14.5t-32 -28t-18.5 -43.5l-73 12q5 40 27 66.5t53 42.5t67.5 23t71.5 7q42 0 84.5 -8.5t71.5 -41.5q16 -17 24.5 -37t12.5 -41.5t4.5 -44t0.5 -44.5v-197q0 -28 1.5 -55t9.5 -52h-78l-9 95q-27 -55 -72 -80t-106 -25q-36 0 -68 10t-56 29.5t-38.5 48
t-14.5 66.5q0 46 26 84t68 57q43 20 95 25t100 5h66zM393 256h-65q-30 0 -66 -3.5t-67 -15.5t-52 -35t-21 -62q0 -24 9.5 -40.5t24.5 -27.5t35 -16t41 -5q36 0 65.5 14t51 38t33 55t11.5 65v33z" />
    <glyph glyph-name="aring" unicode="&#xe5;" 
d="M290 610q18 0 32 13.5t14 31.5q0 19 -13.5 32.5t-32.5 13.5q-20 0 -33 -13t-13 -33t13.5 -32.5t32.5 -12.5zM289 566q-18 0 -34 7t-28.5 19t-19.5 28.5t-7 34.5q0 38 25.5 64.5t63.5 26.5t64.5 -26.5t26.5 -64.5q0 -37 -26.5 -63t-64.5 -26zM393 315v22q0 67 -30.5 95
t-98.5 28q-24 0 -47 -4t-41.5 -14.5t-32 -28t-18.5 -43.5l-73 12q5 40 27 66.5t53 42.5t67.5 23t71.5 7q42 0 84.5 -8.5t71.5 -41.5q16 -17 24.5 -37t12.5 -41.5t4.5 -44t0.5 -44.5v-197q0 -28 1.5 -55t9.5 -52h-78l-9 95q-27 -55 -72 -80t-106 -25q-36 0 -68 10t-56 29.5
t-38.5 48t-14.5 66.5q0 46 26 84t68 57q43 20 95 25t100 5h66zM393 256h-65q-30 0 -66 -3.5t-67 -15.5t-52 -35t-21 -62q0 -24 9.5 -40.5t24.5 -27.5t35 -16t41 -5q36 0 65.5 14t51 38t33 55t11.5 65v33z" />
    <glyph glyph-name="ae" unicode="&#xe6;" horiz-adv-x="900" 
d="M839 139q-11 -35 -31.5 -62.5t-49 -46.5t-62 -29t-69.5 -10q-72 0 -122.5 33t-82.5 95q-23 -63 -73 -96t-117 -33q-35 0 -67 9.5t-56.5 28t-39 47t-14.5 66.5q0 48 24.5 84t66.5 57q19 10 43 16t49.5 9.5t50.5 4.5t46 1h70v35q0 62 -35.5 88t-93.5 26q-44 0 -81 -21
t-47 -67l-74 13q8 38 30 63.5t52 41.5t65 22.5t70 6.5q51 0 96 -14.5t76 -57.5q30 35 73 53.5t90 18.5q59 0 101.5 -23t69.5 -61.5t39 -87.5t12 -101h-367q-2 -37 6 -71.5t26.5 -61.5t48.5 -43.5t71 -16.5q49 0 83 26.5t52 70.5zM335 254q-34 0 -66 -2t-63 -15
q-27 -13 -46.5 -36.5t-19.5 -54.5q0 -43 28.5 -68t70.5 -25q41 0 77 20t59 54q21 31 25 61.5t3 65.5h-68zM762 306q-1 30 -9.5 58t-25 49.5t-41.5 34t-59 12.5q-33 0 -59 -13t-44 -34t-28.5 -49t-11.5 -58h278z" />
    <glyph glyph-name="ccedilla" unicode="&#xe7;" horiz-adv-x="480" 
d="M446 168q-13 -75 -60.5 -124.5t-125.5 -52.5l-7 -25q16 0 33.5 -3t32.5 -10.5t24.5 -20.5t9.5 -32q0 -20 -8 -34t-21.5 -23t-30.5 -13t-34 -4q-24 0 -47.5 5t-43.5 18l11 32q17 -8 35 -13t37 -5q15 0 33 7.5t18 26.5q0 13 -6.5 20t-16 11t-20.5 5t-20 1l-32 -3l19 60
q-50 5 -86.5 29t-60 60t-34.5 81.5t-11 92.5q0 49 12.5 97t39 86t67.5 61t98 23q83 0 132.5 -48.5t62.5 -127.5l-72 -13q-3 25 -12 47.5t-24 39t-36.5 26.5t-48.5 10q-40 0 -66 -18.5t-41.5 -47.5t-22 -63.5t-6.5 -66.5q0 -31 5.5 -66.5t20 -65.5t40 -50t65.5 -20
q57 0 86.5 36t39.5 88z" />
    <glyph glyph-name="egrave" unicode="&#xe8;" 
d="M129 651l34 65l201 -119l-20 -40zM408 306q0 31 -8.5 59.5t-25.5 49.5t-42.5 33.5t-59.5 12.5q-32 0 -58 -13t-44.5 -34.5t-29 -49.5t-11.5 -58h279zM486 139q-11 -35 -32.5 -62.5t-50 -47t-63 -29.5t-70.5 -10q-58 0 -101.5 21.5t-73 57.5t-44 84t-14.5 101
q0 52 15.5 100.5t45 85.5t73.5 59t101 22q59 0 102 -23t70 -61t39 -87t11 -102h-369q0 -30 3.5 -58t17.5 -57q18 -36 54 -56.5t76 -20.5q50 0 84.5 26.5t51.5 71.5z" />
    <glyph glyph-name="eacute" unicode="&#xe9;" 
d="M219 557l-20 40l201 119l34 -65zM408 306q0 31 -8.5 59.5t-25.5 49.5t-42.5 33.5t-59.5 12.5q-32 0 -58 -13t-44.5 -34.5t-29 -49.5t-11.5 -58h279zM486 139q-11 -35 -32.5 -62.5t-50 -47t-63 -29.5t-70.5 -10q-58 0 -101.5 21.5t-73 57.5t-44 84t-14.5 101
q0 52 15.5 100.5t45 85.5t73.5 59t101 22q59 0 102 -23t70 -61t39 -87t11 -102h-369q0 -30 3.5 -58t17.5 -57q18 -36 54 -56.5t76 -20.5q50 0 84.5 26.5t51.5 71.5z" />
    <glyph glyph-name="ecircumflex" unicode="&#xea;" 
d="M368 583l-93 62l-98 -62l-73 10l171 123l162 -123zM408 306q0 31 -8.5 59.5t-25.5 49.5t-42.5 33.5t-59.5 12.5q-32 0 -58 -13t-44.5 -34.5t-29 -49.5t-11.5 -58h279zM486 139q-11 -35 -32.5 -62.5t-50 -47t-63 -29.5t-70.5 -10q-58 0 -101.5 21.5t-73 57.5t-44 84
t-14.5 101q0 52 15.5 100.5t45 85.5t73.5 59t101 22q59 0 102 -23t70 -61t39 -87t11 -102h-369q0 -30 3.5 -58t17.5 -57q18 -36 54 -56.5t76 -20.5q50 0 84.5 26.5t51.5 71.5z" />
    <glyph glyph-name="edieresis" unicode="&#xeb;" 
d="M244 666q0 -23 -15.5 -37.5t-37.5 -14.5t-36.5 15.5t-14.5 36.5q0 22 15.5 36t36.5 14q20 0 36 -14.5t16 -35.5zM399 666q0 -23 -15.5 -37.5t-37.5 -14.5t-36.5 15.5t-14.5 36.5q0 22 15.5 36t36.5 14q20 0 36 -14.5t16 -35.5zM408 306q0 31 -8.5 59.5t-25.5 49.5
t-42.5 33.5t-59.5 12.5q-32 0 -58 -13t-44.5 -34.5t-29 -49.5t-11.5 -58h279zM486 139q-11 -35 -32.5 -62.5t-50 -47t-63 -29.5t-70.5 -10q-58 0 -101.5 21.5t-73 57.5t-44 84t-14.5 101q0 52 15.5 100.5t45 85.5t73.5 59t101 22q59 0 102 -23t70 -61t39 -87t11 -102h-369
q0 -30 3.5 -58t17.5 -57q18 -36 54 -56.5t76 -20.5q50 0 84.5 26.5t51.5 71.5z" />
    <glyph glyph-name="igrave" unicode="&#xec;" horiz-adv-x="240" 
d="M-61 651l34 65l201 -119l-20 -40zM159 0h-78v508h78v-508z" />
    <glyph glyph-name="iacute" unicode="&#xed;" horiz-adv-x="240" 
d="M89 557l-20 40l201 119l34 -65zM159 0h-78v508h78v-508z" />
    <glyph glyph-name="icircumflex" unicode="&#xee;" horiz-adv-x="240" 
d="M208 583l-93 62l-98 -62l-73 10l171 123l162 -123zM159 0h-78v508h78v-508z" />
    <glyph glyph-name="idieresis" unicode="&#xef;" horiz-adv-x="240" 
d="M94 666q0 -23 -15.5 -37.5t-37.5 -14.5t-36.5 15.5t-14.5 36.5q0 22 15.5 36t36.5 14q20 0 36 -14.5t16 -35.5zM249 666q0 -23 -15.5 -37.5t-37.5 -14.5t-36.5 15.5t-14.5 36.5q0 22 15.5 36t36.5 14q20 0 36 -14.5t16 -35.5zM159 0h-78v508h78v-508z" />
    <glyph glyph-name="eth" unicode="&#xf0;" 
d="M386 613q52 -76 80 -161.5t28 -162.5q0 -65 -15 -120t-45 -95t-74 -62t-102 -22q-57 0 -98.5 23t-68.5 60.5t-40 84.5t-13 96q0 45 14 90t42.5 82t72 60t103.5 23q14 0 40.5 -5t55.5 -26q-14 32 -28 57.5t-28 45.5l-126 -53l-28 60l114 48q-9 11 -18 21t-17 20l71 30
q11 -10 20.5 -19.5t17.5 -20.5l127 53l28 -60zM125 252q0 -30 6 -66.5t23 -66.5q17 -29 46.5 -46.5t64.5 -17.5q39 0 69 19t48 54q16 30 20.5 62.5t4.5 61.5q0 32 -6 67t-26 66q-18 28 -47.5 44t-62.5 16q-37 0 -67.5 -19.5t-47.5 -52.5q-14 -28 -19.5 -61.5t-5.5 -59.5z
" />
    <glyph glyph-name="ntilde" unicode="&#xf1;" 
d="M449 634q-23 -23 -47.5 -34.5t-56.5 -11.5q-23 0 -36.5 5.5t-33.5 15.5t-37.5 17.5t-40.5 7.5q-20 0 -35 -8.5t-28 -22.5l-43 31q20 26 49.5 41.5t62.5 15.5q22 0 41.5 -7t38.5 -15t36 -15t33 -7t31.5 8.5t29.5 16.5zM143 414h2q22 48 63 77.5t95 29.5q46 0 83 -19.5
t61 -59.5q10 -16 15 -36t7 -41.5t2 -43.5v-40v-281h-78v314q0 23 -1.5 48.5t-12.5 45.5q-13 22 -37.5 34t-49.5 12q-31 0 -58 -13.5t-47 -37.5q-25 -30 -32.5 -64.5t-7.5 -72.5v-266h-78v508h74v-94z" />
    <glyph glyph-name="ograve" unicode="&#xf2;" 
d="M129 651l34 65l201 -119l-20 -40zM129 258q0 -35 6 -72t23 -67q17 -29 46.5 -46.5t64.5 -17.5q39 0 69 19t48 54q16 30 20.5 63.5t4.5 66.5q0 36 -6 72t-26 67q-18 28 -47.5 44t-62.5 16q-37 0 -67.5 -19.5t-47.5 -52.5q-14 -28 -19.5 -62t-5.5 -65zM42 258
q0 53 15 100.5t44 83.5t73 57.5t101 21.5q56 0 98 -22.5t69.5 -59.5t41.5 -84.5t14 -97.5q0 -53 -15 -101.5t-45 -85.5t-74 -58.5t-102 -21.5q-57 0 -98.5 23t-68.5 60.5t-40 86t-13 98.5z" />
    <glyph glyph-name="oacute" unicode="&#xf3;" 
d="M219 557l-20 40l201 119l34 -65zM129 258q0 -35 6 -72t23 -67q17 -29 46.5 -46.5t64.5 -17.5q39 0 69 19t48 54q16 30 20.5 63.5t4.5 66.5q0 36 -6 72t-26 67q-18 28 -47.5 44t-62.5 16q-37 0 -67.5 -19.5t-47.5 -52.5q-14 -28 -19.5 -62t-5.5 -65zM42 258q0 53 15 100.5
t44 83.5t73 57.5t101 21.5q56 0 98 -22.5t69.5 -59.5t41.5 -84.5t14 -97.5q0 -53 -15 -101.5t-45 -85.5t-74 -58.5t-102 -21.5q-57 0 -98.5 23t-68.5 60.5t-40 86t-13 98.5z" />
    <glyph glyph-name="ocircumflex" unicode="&#xf4;" 
d="M378 583l-93 62l-98 -62l-73 10l171 123l162 -123zM129 258q0 -35 6 -72t23 -67q17 -29 46.5 -46.5t64.5 -17.5q39 0 69 19t48 54q16 30 20.5 63.5t4.5 66.5q0 36 -6 72t-26 67q-18 28 -47.5 44t-62.5 16q-37 0 -67.5 -19.5t-47.5 -52.5q-14 -28 -19.5 -62t-5.5 -65z
M42 258q0 53 15 100.5t44 83.5t73 57.5t101 21.5q56 0 98 -22.5t69.5 -59.5t41.5 -84.5t14 -97.5q0 -53 -15 -101.5t-45 -85.5t-74 -58.5t-102 -21.5q-57 0 -98.5 23t-68.5 60.5t-40 86t-13 98.5z" />
    <glyph glyph-name="otilde" unicode="&#xf5;" 
d="M449 634q-23 -23 -47.5 -34.5t-56.5 -11.5q-23 0 -36.5 5.5t-33.5 15.5t-37.5 17.5t-40.5 7.5q-20 0 -35 -8.5t-28 -22.5l-43 31q20 26 49.5 41.5t62.5 15.5q22 0 41.5 -7t38.5 -15t36 -15t33 -7t31.5 8.5t29.5 16.5zM129 258q0 -35 6 -72t23 -67q17 -29 46.5 -46.5
t64.5 -17.5q39 0 69 19t48 54q16 30 20.5 63.5t4.5 66.5q0 36 -6 72t-26 67q-18 28 -47.5 44t-62.5 16q-37 0 -67.5 -19.5t-47.5 -52.5q-14 -28 -19.5 -62t-5.5 -65zM42 258q0 53 15 100.5t44 83.5t73 57.5t101 21.5q56 0 98 -22.5t69.5 -59.5t41.5 -84.5t14 -97.5
q0 -53 -15 -101.5t-45 -85.5t-74 -58.5t-102 -21.5q-57 0 -98.5 23t-68.5 60.5t-40 86t-13 98.5z" />
    <glyph glyph-name="odieresis" unicode="&#xf6;" 
d="M244 666q0 -23 -15.5 -37.5t-37.5 -14.5t-36.5 15.5t-14.5 36.5q0 22 15.5 36t36.5 14q20 0 36 -14.5t16 -35.5zM399 666q0 -23 -15.5 -37.5t-37.5 -14.5t-36.5 15.5t-14.5 36.5q0 22 15.5 36t36.5 14q20 0 36 -14.5t16 -35.5zM129 258q0 -35 6 -72t23 -67
q17 -29 46.5 -46.5t64.5 -17.5q39 0 69 19t48 54q16 30 20.5 63.5t4.5 66.5q0 36 -6 72t-26 67q-18 28 -47.5 44t-62.5 16q-37 0 -67.5 -19.5t-47.5 -52.5q-14 -28 -19.5 -62t-5.5 -65zM42 258q0 53 15 100.5t44 83.5t73 57.5t101 21.5q56 0 98 -22.5t69.5 -59.5t41.5 -84.5
t14 -97.5q0 -53 -15 -101.5t-45 -85.5t-74 -58.5t-102 -21.5q-57 0 -98.5 23t-68.5 60.5t-40 86t-13 98.5z" />
    <glyph glyph-name="divide" unicode="&#xf7;" horiz-adv-x="600" 
d="M348 434h-97v97h97v-97zM348 46h-97v97h97v-97zM41 321h517v-65h-517v65z" />
    <glyph glyph-name="oslash" unicode="&#xf8;" 
d="M440 443q29 -37 43.5 -85.5t14.5 -100.5q0 -53 -15 -101.5t-45 -85.5t-74 -58.5t-102 -21.5q-42 0 -74 12t-57 33l-70 -91h-66l98 133q-26 37 -38.5 84t-12.5 97q0 53 15 100.5t44 83.5t73 57.5t101 21.5q38 0 69 -10.5t57 -29.5l72 94h67zM176 95q18 -19 42.5 -29.5
t50.5 -10.5q39 0 69 19t48 54q16 30 20.5 63.5t4.5 66.5q0 30 -4 60t-17 58zM357 422q-16 17 -39.5 26t-48.5 9q-37 0 -67.5 -19.5t-47.5 -52.5q-14 -28 -19.5 -62t-5.5 -65q0 -28 3.5 -57.5t13.5 -55.5z" />
    <glyph glyph-name="ugrave" unicode="&#xf9;" 
d="M79 651l34 65l201 -119l-20 -40zM468 0h-71v101h-2q-19 -48 -61 -79.5t-95 -31.5q-38 0 -72 14t-58 43q-26 32 -33 72.5t-7 79.5v309h78v-309q0 -22 3 -47.5t14 -45.5q11 -21 34.5 -34.5t47.5 -13.5q32 0 58.5 13.5t46.5 38.5q23 29 31 60.5t8 67.5v270h78v-508z" />
    <glyph glyph-name="uacute" unicode="&#xfa;" 
d="M259 557l-20 40l201 119l34 -65zM468 0h-71v101h-2q-19 -48 -61 -79.5t-95 -31.5q-38 0 -72 14t-58 43q-26 32 -33 72.5t-7 79.5v309h78v-309q0 -22 3 -47.5t14 -45.5q11 -21 34.5 -34.5t47.5 -13.5q32 0 58.5 13.5t46.5 38.5q23 29 31 60.5t8 67.5v270h78v-508z" />
    <glyph glyph-name="ucircumflex" unicode="&#xfb;" 
d="M368 583l-93 62l-98 -62l-73 10l171 123l162 -123zM468 0h-71v101h-2q-19 -48 -61 -79.5t-95 -31.5q-38 0 -72 14t-58 43q-26 32 -33 72.5t-7 79.5v309h78v-309q0 -22 3 -47.5t14 -45.5q11 -21 34.5 -34.5t47.5 -13.5q32 0 58.5 13.5t46.5 38.5q23 29 31 60.5t8 67.5v270
h78v-508z" />
    <glyph glyph-name="udieresis" unicode="&#xfc;" 
d="M244 666q0 -23 -15.5 -37.5t-37.5 -14.5t-36.5 15.5t-14.5 36.5q0 22 15.5 36t36.5 14q20 0 36 -14.5t16 -35.5zM399 666q0 -23 -15.5 -37.5t-37.5 -14.5t-36.5 15.5t-14.5 36.5q0 22 15.5 36t36.5 14q20 0 36 -14.5t16 -35.5zM468 0h-71v101h-2q-19 -48 -61 -79.5
t-95 -31.5q-38 0 -72 14t-58 43q-26 32 -33 72.5t-7 79.5v309h78v-309q0 -22 3 -47.5t14 -45.5q11 -21 34.5 -34.5t47.5 -13.5q32 0 58.5 13.5t46.5 38.5q23 29 31 60.5t8 67.5v270h78v-508z" />
    <glyph glyph-name="yacute" unicode="&#xfd;" horiz-adv-x="420" 
d="M179 557l-20 40l201 119l34 -65zM226 -48q-11 -28 -21.5 -50t-30.5 -44q-23 -25 -46 -32t-57 -7q-15 0 -29.5 2.5t-28.5 6.5v63q13 -3 26 -5t26 -2q30 0 48.5 11t30.5 29t19.5 40t15.5 45l-176 499h81l136 -382l139 382h66z" />
    <glyph glyph-name="thorn" unicode="&#xfe;" 
d="M156 686v-276h2q14 51 53.5 81t96.5 30q53 0 91 -24t62.5 -62t36 -84.5t11.5 -92.5q0 -44 -9 -89.5t-32 -83.5q-26 -42 -67 -68.5t-93 -26.5q-53 0 -89.5 23t-62.5 67v-246h-78v852h78zM156 199q0 -26 11 -52t29 -46t42.5 -32.5t51.5 -12.5q32 0 60 17.5t44 44.5
q17 29 22 66t5 71q0 31 -5.5 65.5t-20.5 64t-40.5 48.5t-64.5 19q-26 0 -48 -10.5t-39.5 -28t-29.5 -39.5t-17 -46v-129z" />
    <glyph glyph-name="ydieresis" unicode="&#xff;" horiz-adv-x="420" 
d="M184 666q0 -23 -15.5 -37.5t-37.5 -14.5t-36.5 15.5t-14.5 36.5q0 22 15.5 36t36.5 14q20 0 36 -14.5t16 -35.5zM339 666q0 -23 -15.5 -37.5t-37.5 -14.5t-36.5 15.5t-14.5 36.5q0 22 15.5 36t36.5 14q20 0 36 -14.5t16 -35.5zM226 -48q-11 -28 -21.5 -50t-30.5 -44
q-23 -25 -46 -32t-57 -7q-15 0 -29.5 2.5t-28.5 6.5v63q13 -3 26 -5t26 -2q30 0 48.5 11t30.5 29t19.5 40t15.5 45l-176 499h81l136 -382l139 382h66z" />
    <glyph glyph-name="dotlessi" unicode="&#x131;" horiz-adv-x="240" 
d="M159 0h-78v508h78v-508z" />
    <glyph glyph-name="Lslash" unicode="&#x141;" horiz-adv-x="500" 
d="M491 0h-404v281l-73 -75v72l73 77v331h86v-255l91 91v-72l-91 -93v-282h318v-75z" />
    <glyph glyph-name="lslash" unicode="&#x142;" horiz-adv-x="200" 
d="M140 463l52 51v-80l-52 -47v-387h-78v310l-53 -52v75l53 53v300h78v-223z" />
    <glyph glyph-name="OE" unicode="&#x152;" horiz-adv-x="1000" 
d="M527 498q-7 31 -24 55.5t-41 41t-53.5 25t-60.5 8.5q-58 0 -97.5 -26.5t-64 -67.5t-35.5 -91t-11 -98q0 -49 10.5 -100t35 -92.5t65 -68t99.5 -26.5q33 0 62.5 10t53 29t39.5 45.5t22 58.5v297zM527 75q-34 -44 -79.5 -64.5t-101.5 -20.5q-75 0 -130.5 30t-93 79.5
t-56 112.5t-18.5 130t19 131t56.5 113.5t93.5 79.5t131 30q57 0 100.5 -20t78.5 -63v73h436v-74h-350v-218h282v-69h-282v-251h350v-74h-436v75z" />
    <glyph glyph-name="oe" unicode="&#x153;" horiz-adv-x="880" 
d="M266 53q45 0 73 18.5t44.5 48.5t22.5 66.5t6 72.5q0 32 -5.5 68t-22.5 63q-37 64 -111 64q-46 0 -75 -18.5t-45 -48.5t-21.5 -67t-5.5 -74q0 -15 1.5 -33t5 -36t9 -34.5t14.5 -29.5q18 -28 47.5 -44t62.5 -16zM753 306q0 30 -9 57.5t-25.5 49t-41 34t-56.5 12.5
t-57 -12.5t-42.5 -34t-27.5 -49t-11 -57.5h270zM829 142q-10 -34 -30 -62t-47 -48t-59.5 -31t-68.5 -11q-55 0 -99.5 22.5t-77.5 64.5q-36 -42 -79.5 -64.5t-100.5 -22.5q-58 0 -101 22t-71.5 59.5t-43 85.5t-14.5 101q0 48 14 96t46 86t77.5 59.5t96.5 21.5q54 0 98 -22.5
t78 -63.5q33 41 76.5 63.5t97.5 22.5q58 0 99 -23.5t67.5 -61.5t38 -87.5t11.5 -100.5h-356q-1 -29 2 -56.5t17 -54.5q17 -38 52.5 -59t77.5 -21q48 0 79.5 28t48.5 71z" />
    <glyph glyph-name="Scaron" unicode="&#x160;" horiz-adv-x="620" 
d="M212 894l95 -63l96 63l74 -10l-170 -124l-164 124zM120 202q21 -72 76 -105.5t127 -33.5q31 0 65 7.5t58 26.5q20 15 31 39t11 49q0 26 -10 44.5t-26 31.5t-37.5 21.5t-43.5 14.5l-114 28q-35 8 -66 19t-58 36q-27 24 -41.5 57.5t-14.5 69.5q0 49 19.5 85t52 59t74.5 34
t87 11q87 0 151.5 -42t92.5 -126l-78 -21q-6 28 -22.5 50.5t-40 38t-51 24t-54.5 8.5q-24 0 -50 -6.5t-47.5 -20t-35.5 -34t-14 -48.5q0 -29 10.5 -47.5t27.5 -30.5t39.5 -18.5t46.5 -12.5l103 -25q34 -8 66.5 -19t58.5 -34q32 -26 48 -60.5t16 -75.5q0 -47 -19.5 -87
t-57.5 -69t-85 -39.5t-94 -10.5q-106 0 -174.5 47.5t-103.5 147.5z" />
    <glyph glyph-name="scaron" unicode="&#x161;" horiz-adv-x="520" 
d="M162 716l95 -63l96 63l74 -10l-170 -124l-164 124zM119 150q4 -26 20 -44t38 -29.5t47 -16.5t48 -5q20 0 42 4t40 13.5t29.5 26t11.5 40.5q0 20 -9.5 33.5t-23.5 22t-32 13.5t-34 8l-83 15q-29 6 -56 16t-47.5 26.5t-33 40.5t-12.5 58q0 39 16.5 67.5t43.5 46.5t61 26.5
t69 8.5q34 0 66 -7t59 -22t47 -39.5t29 -59.5l-72 -15q-15 42 -50.5 61t-79.5 19q-17 0 -36 -3.5t-35 -12.5t-26.5 -23t-10.5 -35t8 -34t20.5 -21t29 -12t33.5 -7l74 -13q28 -5 55.5 -12t50.5 -23q30 -20 45.5 -50t15.5 -65q0 -43 -19 -73t-49.5 -48.5t-68 -27t-74.5 -8.5
t-73 8t-66 25.5t-52 45t-32 66.5z" />
    <glyph glyph-name="Ydieresis" unicode="&#x178;" horiz-adv-x="560" 
d="M254 824q0 -23 -15.5 -37.5t-37.5 -14.5t-36.5 15.5t-14.5 36.5q0 22 15.5 36t36.5 14q20 0 36 -14.5t16 -35.5zM409 824q0 -23 -15.5 -37.5t-37.5 -14.5t-36.5 15.5t-14.5 36.5q0 22 15.5 36t36.5 14q20 0 36 -14.5t16 -35.5zM323 289v-289h-86v289l-229 397h100
l182 -316l184 316h78z" />
    <glyph glyph-name="florin" unicode="&#x192;" horiz-adv-x="600" 
d="M499 518h-123l-84 -475q-5 -32 -14 -64t-28 -58q-28 -37 -67 -54t-84 -17l-42 2l11 61h27q39 0 61 13.5t34 35.5t17 50.5t11 59.5l78 446h-93l10 59h94q6 31 13.5 61.5t25.5 56.5q26 40 68.5 59t89.5 19l40 -3l-11 -61l-29 1q-34 0 -54.5 -10.5t-33 -28.5t-19 -42
t-11.5 -52h123z" />
    <glyph glyph-name="circumflex" unicode="&#x2c6;" horiz-adv-x="480" 
d="M338 583l-93 62l-98 -62l-73 10l171 123l162 -123z" />
    <glyph glyph-name="caron" unicode="&#x2c7;" horiz-adv-x="480" 
d="M142 716l95 -63l96 63l74 -10l-170 -124l-164 124z" />
    <glyph glyph-name="breve" unicode="&#x2d8;" horiz-adv-x="480" 
d="M408 691q-7 -32 -22.5 -52.5t-37 -33.5t-48 -18t-55.5 -5q-32 0 -59.5 4.5t-49.5 16.5t-38.5 33t-25.5 55h61q6 -18 18 -29t27 -16.5t32 -7t34 -1.5q36 0 64.5 9t44.5 45h55z" />
    <glyph glyph-name="dotaccent" unicode="&#x2d9;" horiz-adv-x="240" 
d="M172 666q0 -23 -15.5 -37.5t-37.5 -14.5t-36.5 15.5t-14.5 36.5q0 22 15.5 36t36.5 14q20 0 36 -14.5t16 -35.5z" />
    <glyph glyph-name="ring" unicode="&#x2da;" horiz-adv-x="320" 
d="M160 590q18 0 32 13.5t14 31.5q0 19 -13.5 32.5t-32.5 13.5q-20 0 -33 -13t-13 -33t13.5 -32.5t32.5 -12.5zM159 546q-18 0 -34 7t-28.5 19t-19.5 28.5t-7 34.5q0 38 25.5 64.5t63.5 26.5t64.5 -26.5t26.5 -64.5q0 -37 -26.5 -63t-64.5 -26z" />
    <glyph glyph-name="ogonek" unicode="&#x2db;" horiz-adv-x="320" 
d="M168 0l2 -2q-16 -9 -27 -20.5t-11 -32.5q0 -19 13.5 -29t30.5 -10q15 0 29 4.5t28 10.5l14 -31q-39 -25 -86 -25q-15 0 -30.5 3.5t-28 11t-21 19.5t-8.5 30q0 20 11.5 34.5t27.5 25.5z" />
    <glyph glyph-name="tilde" unicode="&#x2dc;" horiz-adv-x="500" 
d="M429 634q-23 -23 -47.5 -34.5t-56.5 -11.5q-23 0 -36.5 5.5t-33.5 15.5t-37.5 17.5t-40.5 7.5q-20 0 -35 -8.5t-28 -22.5l-43 31q20 26 49.5 41.5t62.5 15.5q22 0 41.5 -7t38.5 -15t36 -15t33 -7t31.5 8.5t29.5 16.5z" />
    <glyph glyph-name="hungarumlaut" unicode="&#x2dd;" horiz-adv-x="500" 
d="M257 505l-34 31l151 180l53 -50zM106 505l-34 31l151 180l53 -50z" />
    <glyph glyph-name="endash" unicode="&#x2013;" horiz-adv-x="500" 
d="M500 226h-500v62h500v-62z" />
    <glyph glyph-name="emdash" unicode="&#x2014;" horiz-adv-x="1000" 
d="M1000 226h-1000v62h1000v-62z" />
    <glyph glyph-name="quoteleft" unicode="&#x2018;" horiz-adv-x="300" 
d="M103 566l67 120h36l-50 -120h50v-102h-103v102z" />
    <glyph glyph-name="quoteright" unicode="&#x2019;" horiz-adv-x="300" 
d="M197 584l-67 -120h-36l50 120h-50v102h103v-102z" />
    <glyph glyph-name="quotesinglbase" unicode="&#x201a;" horiz-adv-x="300" 
d="M209 13l-80 -134h-38l59 121h-41v99h100v-86z" />
    <glyph glyph-name="quotedblleft" unicode="&#x201c;" horiz-adv-x="460" 
d="M97 553l80 133h38l-59 -120h41v-99h-100v86zM248 553l80 133h38l-59 -120h41v-99h-100v86z" />
    <glyph glyph-name="quotedblright" unicode="&#x201d;" horiz-adv-x="460" 
d="M212 600l-80 -133h-38l59 120h-41v99h100v-86zM363 600l-79 -133h-36l57 120h-41v99h99v-86z" />
    <glyph glyph-name="quotedblbase" unicode="&#x201e;" horiz-adv-x="460" 
d="M214 13l-80 -134h-38l59 121h-41v99h100v-86zM365 13l-79 -134h-36l57 121h-41v99h99v-86z" />
    <glyph glyph-name="dagger" unicode="&#x2020;" horiz-adv-x="600" 
d="M318 443l39 -46q-16 -58 -21.5 -118.5t-9.5 -120.5l-8 -282v-47h-33l-1 46l-20 388q-3 34 -7 68t-15 66l43 46l-212 -25l9 46l-9 44l212 -37l-43 215l59 -12l56 12l-39 -215l210 37l-9 -44l9 -46z" />
    <glyph glyph-name="daggerdbl" unicode="&#x2021;" horiz-adv-x="600" 
d="M281 -171l-11 219q-5 61 -10.5 121.5t-22.5 118.5l44 38l-210 -29l9 48l-9 46l210 -37l-22 64l22 52l-210 -30l9 47l-9 47l203 -37l-28 189l54 -16l54 16l-31 -189l207 37l-11 -47l11 -47l-214 30l24 -52l-24 -64l214 37l-11 -46l11 -48l-214 29q11 -11 22.5 -20.5
t24.5 -17.5q-14 -43 -19 -88t-9 -90l-19 -281h-35z" />
    <glyph glyph-name="bullet" unicode="&#x2022;" horiz-adv-x="600" 
d="M385 343q0 -35 -24.5 -60t-60.5 -25t-60.5 24.5t-24.5 60.5q0 35 24.5 60.5t60.5 25.5t60.5 -25.5t24.5 -60.5z" />
    <glyph glyph-name="ellipsis" unicode="&#x2026;" horiz-adv-x="1000" 
d="M888 0h-111v113h111v-113zM555 0h-111v113h111v-113zM222 0h-111v113h111v-113z" />
    <glyph glyph-name="perthousand" unicode="&#x2030;" horiz-adv-x="1040" 
d="M166 645q-25 0 -40.5 -12t-24 -30.5t-11.5 -41t-3 -44.5q0 -19 3 -41t11.5 -41t24.5 -32t42 -13t42 13t24.5 32t11.5 41t3 41q-1 22 -4.5 44.5t-12.5 41t-25 30.5t-41 12zM166 696q38 0 65 -15.5t44 -40.5t25.5 -57.5t9.5 -65.5q0 -32 -8.5 -64t-26 -57.5t-44 -41
t-63.5 -15.5t-63.5 15.5t-44 41t-26 57.5t-8.5 64q0 33 8 65.5t25 57.5t43.5 40.5t63.5 15.5zM870 296q-25 0 -40.5 -12t-24 -30.5t-11.5 -41t-3 -44.5q0 -19 3 -41t11.5 -41t24.5 -32t42 -13t42 13t24.5 32t11.5 41t3 41q-1 22 -4.5 44.5t-12.5 41t-25 30.5t-41 12z
M870 347q38 0 65 -15.5t44 -40.5t25.5 -57.5t9.5 -65.5q0 -32 -8.5 -64t-26 -57.5t-44 -41t-63.5 -15.5t-63.5 15.5t-44 41t-26 57.5t-8.5 64q0 33 8 65.5t25 57.5t43.5 40.5t63.5 15.5zM510 296q-25 0 -40.5 -12t-24 -30.5t-11.5 -41t-3 -44.5q0 -19 3 -41t11.5 -41
t24.5 -32t42 -13t42 13t24.5 32t11.5 41t3 41q-1 22 -4.5 44.5t-12.5 41t-25 30.5t-41 12zM510 347q38 0 65 -15.5t44 -40.5t25.5 -57.5t9.5 -65.5q0 -32 -8.5 -64t-26 -57.5t-44 -41t-63.5 -15.5t-63.5 15.5t-44 41t-26 57.5t-8.5 64q0 33 8 65.5t25 57.5t43.5 40.5
t63.5 15.5zM95 0l415 686h73l-415 -686h-73z" />
    <glyph glyph-name="guilsinglleft" unicode="&#x2039;" horiz-adv-x="260" 
d="M65 257l86 142h45l-53 -142l53 -146h-44z" />
    <glyph glyph-name="guilsinglright" unicode="&#x203a;" horiz-adv-x="260" 
d="M108 111h-44l53 146l-53 142h45l86 -142z" />
    <glyph glyph-name="trademark" unicode="&#x2122;" horiz-adv-x="840" 
d="M597 357l116 329h92v-411h-62v359h-2l-126 -359h-45l-130 359h-2v-359h-50v411h90zM147 275v361h-112v50h286v-50h-112v-361h-62z" />
    <glyph glyph-name="minus" unicode="&#x2212;" horiz-adv-x="600" 
d="M41 321h517v-65h-517v65z" />
    <glyph glyph-name="fraction" unicode="&#x2215;" horiz-adv-x="160" 
d="M-164 0l415 686h73l-415 -686h-73z" />
    <glyph glyph-name="fi" unicode="&#xfb01;" horiz-adv-x="500" 
d="M296 508v-62h-118v-446h-78v446h-90v62h90q1 26 2 54t13 54q19 41 53 60.5t78 19.5q13 0 25.5 -2t24.5 -4v-62q-10 2 -19.5 4t-20.5 2q-30 0 -46 -11.5t-23.5 -30t-8.5 -41t0 -43.5h118zM427 598h-86v88h86v-88zM424 0h-78v508h78v-508z" />
    <glyph glyph-name="fl" unicode="&#xfb02;" horiz-adv-x="500" 
d="M346 0v686h78v-686h-78zM296 508v-62h-118v-446h-78v446h-90v62h90q-2 38 4.5 72t24.5 60t47.5 41t74.5 15q22 0 45 -6v-62q-11 2 -21 3.5t-21 1.5q-29 0 -44.5 -12t-23 -30t-8.5 -40t0 -43h118z" />
    <glyph glyph-name="nonbreakingspace" horiz-adv-x="300" 
 />
    </font>
</defs>
</svg>
