<?xml version="1.0" standalone="no"?>
<!DOCTYPE svg PUBLIC "-//W3C//DTD SVG 1.1//EN" "http://www.w3.org/Graphics/SVG/1.1/DTD/svg11.dtd" >
<svg>
<metadata>
Created by FontForge 20090622 at Wed Jul  8 13:07:07 2020
 By deploy user
 ITC Franklin Gothic is a trademark of The International Typeface Corporation which may be registered in certain jurisdictions. Portions copyright Microsoft Corporation.  All rights reserved.
</metadata>
<defs>
<font id="FranklinGothic-Demi" horiz-adv-x="1451" >
  <font-face 
    font-family="Franklin Gothic Demi"
    font-weight="400"
    font-stretch="normal"
    units-per-em="2048"
    panose-1="2 11 7 3 2 1 2 2 2 4"
    ascent="1638"
    descent="-410"
    x-height="1010"
    cap-height="1365"
    bbox="-513 -628 2175 1945"
    underline-thickness="102"
    underline-position="-103"
    unicode-range="U+0020-U+FB02"
  />
<missing-glyph horiz-adv-x="2048" 
d="M256 0v1536h1536v-1536h-1536zM384 128h1280v1280h-1280v-1280z" />
    <glyph glyph-name=".notdef" horiz-adv-x="2048" 
d="M256 0v1536h1536v-1536h-1536zM384 128h1280v1280h-1280v-1280z" />
    <glyph glyph-name=".null" horiz-adv-x="0" 
 />
    <glyph glyph-name="nonmarkingreturn" horiz-adv-x="512" 
 />
    <glyph glyph-name="space" unicode=" " horiz-adv-x="512" 
 />
    <glyph glyph-name="exclam" unicode="!" horiz-adv-x="602" 
d="M209 408l-100 957h383l-99 -957h-184zM144 0v315h315v-315h-315z" />
    <glyph glyph-name="quotedbl" unicode="&#x22;" horiz-adv-x="759" 
d="M283 797h-171l-35 568h242zM646 797h-171l-36 568h242z" />
    <glyph glyph-name="numbersign" unicode="#" horiz-adv-x="1201" 
d="M1073 620l-35 -199h-193l-74 -421h-202l74 421h-156l-75 -421h-198l74 421h-218l35 199h218l27 154h-214l34 198h215l69 393h199l-69 -393h157l69 393h201l-69 -393h190l-35 -198h-190l-27 -154h193zM706 774h-157l-27 -154h157z" />
    <glyph glyph-name="dollar" unicode="$" horiz-adv-x="1201" 
d="M648 40v-190h-161v189q-361 38 -439 348l275 63q47 -177 258 -177q102 0 152.5 39t50.5 94q0 56 -45 87t-176 57q-284 59 -366.5 158.5t-82.5 232.5q0 156 104 266.5t269 130.5v158h161v-156q308 -29 403 -295l-252 -84q-51 150 -217 150q-176 0 -176 -114
q0 -46 33 -77.5t149 -54.5q194 -39 284.5 -79t152 -129t61.5 -199q0 -152 -109 -274.5t-329 -143.5z" />
    <glyph glyph-name="percent" unicode="%" horiz-adv-x="1412" 
d="M339 673q-135 0 -208 101.5t-73 248.5q0 149 72.5 250.5t209.5 101.5q136 0 209.5 -101t73.5 -249q0 -151 -74 -251.5t-210 -100.5zM341 1252q-56 0 -78 -49.5t-22 -176.5q0 -125 22 -175.5t77 -50.5q54 0 77 50t23 169q0 133 -22 183t-77 50zM249 0l756 1365h152
l-757 -1365h-151zM1070 -10q-136 0 -209 101.5t-73 249.5q0 149 72.5 250t210.5 101q136 0 209.5 -101.5t73.5 -248.5q0 -151 -74 -251.5t-210 -100.5zM1072 569q-51 0 -76 -43.5t-25 -182.5q0 -126 23 -176t77 -50t77 50.5t23 167.5q0 133 -22 183.5t-77 50.5z" />
    <glyph glyph-name="ampersand" unicode="&#x26;" horiz-adv-x="1470" 
d="M1436 745q-47 -229 -223 -434q62 -64 140 -64q28 0 83 6v-243q-74 -19 -137 -19q-183 0 -295 131q-187 -149 -427 -149q-262 0 -390.5 131t-128.5 299q0 272 338 395q-79 100 -102.5 155.5t-23.5 118.5q0 144 115 232.5t306 88.5q193 0 299.5 -96.5t106.5 -242.5
q0 -225 -257 -331l192 -209q83 90 121 270zM703 891q146 54 146 158q0 56 -39.5 96t-109.5 40q-56 0 -92.5 -29t-36.5 -75q0 -56 75 -132zM559 617q-160 -55 -160 -191q0 -80 57.5 -140.5t154.5 -60.5q124 0 227 82z" />
    <glyph glyph-name="quotesingle" unicode="'" horiz-adv-x="397" 
d="M283 797h-171l-35 568h242z" />
    <glyph glyph-name="parenleft" unicode="(" horiz-adv-x="601" 
d="M330 -341q-285 407 -285 849q0 465 291 857h217q-235 -388 -235 -851q0 -474 230 -855h-218z" />
    <glyph glyph-name="parenright" unicode=")" horiz-adv-x="601" 
d="M270 1365q286 -409 286 -849q0 -467 -291 -857h-218q235 385 235 851q0 474 -230 855h218z" />
    <glyph glyph-name="asterisk" unicode="*" horiz-adv-x="1201" 
d="M952 666l-199 -139l-156 262l-155 -262l-201 139l201 225l-294 71l79 219l278 -121l-26 305h239l-30 -305l293 121l72 -219l-300 -71z" />
    <glyph glyph-name="plus" unicode="+" horiz-adv-x="1201" 
d="M1107 799v-219h-397v-411h-218v411h-397v219h397v412h218v-412h397z" />
    <glyph glyph-name="comma" unicode="," horiz-adv-x="527" 
d="M418 310v-280l-200 -349h-110l155 319h-155v310h310z" />
    <glyph glyph-name="hyphen" unicode="-" horiz-adv-x="527" 
d="M24 628h478v-217h-478v217z" />
    <glyph glyph-name="period" unicode="." horiz-adv-x="527" 
d="M418 0h-309v309h309v-309z" />
    <glyph glyph-name="slash" unicode="/" horiz-adv-x="1096" 
d="M69 -341h-203l975 1706h201z" />
    <glyph glyph-name="zero" unicode="0" horiz-adv-x="1201" 
d="M598 -21q-251 0 -390.5 199t-139.5 503q0 298 136 501.5t396 203.5q258 0 396 -203.5t138 -497.5q0 -301 -138.5 -503.5t-397.5 -202.5zM602 1157q-113 0 -157.5 -104.5t-44.5 -366.5q0 -264 46.5 -367t154.5 -103q107 0 155 101t48 356q0 280 -47 382t-155 102z" />
    <glyph glyph-name="one" unicode="1" horiz-adv-x="1201" 
d="M124 827v281q354 104 462 278h232v-1136h378v-250h-1106v250h414v781q-244 -148 -380 -204z" />
    <glyph glyph-name="two" unicode="2" horiz-adv-x="1201" 
d="M1112 272l-23 -272h-1024v265q50 38 165 119q281 200 409 329.5t128 237.5q0 79 -51 130.5t-137 51.5q-200 0 -232 -261l-282 63q95 451 527 451q242 0 371.5 -127t129.5 -303q0 -182 -135.5 -325t-498.5 -359h653z" />
    <glyph glyph-name="three" unicode="3" horiz-adv-x="1201" 
d="M398 825h144q123 0 167 51t44 109q0 65 -48.5 115.5t-135.5 50.5q-166 0 -209 -175l-283 45q35 158 169.5 261.5t331.5 103.5q206 0 346.5 -98t140.5 -268q0 -223 -234 -305q275 -73 275 -324q0 -180 -140.5 -296t-387.5 -116q-237 0 -375.5 119.5t-166.5 296.5l290 42
q42 -212 244 -212q94 0 152.5 50t58.5 134q0 89 -53.5 133t-204.5 44h-125v239z" />
    <glyph glyph-name="four" unicode="4" horiz-adv-x="1201" 
d="M963 1386v-832h191v-239h-191v-315h-319v315h-597v239l551 832h365zM288 554h371v462q0 27 2 65l2 56z" />
    <glyph glyph-name="five" unicode="5" horiz-adv-x="1201" 
d="M1029 1085h-596l-22 -304q110 117 291 117q185 0 314 -121.5t129 -313.5q0 -213 -139.5 -348.5t-390.5 -135.5q-436 0 -539 388l300 45q46 -180 228 -180q100 0 159 62t59 146q0 88 -62 151t-153 63q-127 0 -196 -106l-261 43l54 774h860z" />
    <glyph glyph-name="six" unicode="6" horiz-adv-x="1201" 
d="M1116 1021l-275 -74q-39 210 -204 210q-240 0 -240 -456q97 156 306 156q191 0 312 -124.5t121 -294.5q0 -181 -133.5 -320t-356.5 -139q-220 0 -347.5 113t-173 269t-45.5 303q0 314 141.5 518t419.5 204q201 0 323 -105.5t152 -259.5zM618 208q87 0 145 58.5t58 165.5
q0 95 -62.5 150.5t-139.5 55.5q-81 0 -143.5 -60t-62.5 -157q0 -91 58 -152t147 -61z" />
    <glyph glyph-name="seven" unicode="7" horiz-adv-x="1201" 
d="M1096 1365v-243q-93 -98 -203.5 -304.5t-147 -403.5t-36.5 -313q0 -35 4 -101h-366q3 161 30 293.5t104 303t155 281t173 205.5h-692l24 282h955z" />
    <glyph glyph-name="eight" unicode="8" horiz-adv-x="1201" 
d="M889 737q253 -105 253 -336q0 -184 -145 -303t-418 -119q-252 0 -386 109.5t-134 279.5q0 215 244 304q-198 110 -198 311q0 167 131.5 285t367.5 118q226 0 358.5 -102t132.5 -258q0 -199 -206 -289zM679 826q138 42 138 174q0 80 -57.5 130t-164.5 50q-87 0 -136 -41.5
t-49 -106.5q0 -61 48 -104.5t221 -101.5zM517 570q-170 -50 -170 -190q0 -85 66 -133.5t186 -48.5q104 0 169 37.5t65 110.5q0 57 -46.5 104t-269.5 120z" />
    <glyph glyph-name="nine" unicode="9" horiz-adv-x="1201" 
d="M385 362q42 -144 181 -144q94 0 161.5 77t71.5 359q-117 -141 -305 -141q-182 0 -301.5 116t-119.5 302q0 203 135.5 329t365.5 126q165 0 287.5 -75t188 -239.5t65.5 -369.5q0 -307 -141 -515t-422 -208q-361 0 -448 332zM580 1159q-89 0 -146.5 -63.5t-57.5 -144.5
q0 -82 54.5 -144t145.5 -62t149 64t58 144q0 81 -57.5 143.5t-145.5 62.5z" />
    <glyph glyph-name="colon" unicode=":" horiz-adv-x="527" 
d="M418 707h-309v303h309v-303zM418 1h-309v308h309v-308z" />
    <glyph glyph-name="semicolon" unicode=";" horiz-adv-x="527" 
d="M418 1010v-301h-310v301h310zM418 306v-280l-200 -350h-110l155 320h-155v310h310z" />
    <glyph glyph-name="semicolon" unicode="&#x37e;" horiz-adv-x="527" 
d="M418 1010v-301h-310v301h310zM418 306v-280l-200 -350h-110l155 320h-155v310h310z" />
    <glyph glyph-name="less" unicode="&#x3c;" horiz-adv-x="1201" 
d="M1024 1261v-280l-589 -297l589 -297v-278l-887 458v236z" />
    <glyph glyph-name="equal" unicode="=" horiz-adv-x="1201" 
d="M1107 976v-218h-1012v218h1012zM1107 601v-219h-1012v219h1012z" />
    <glyph glyph-name="greater" unicode="&#x3e;" horiz-adv-x="1201" 
d="M177 109v280l589 296l-589 298v278l887 -458v-237z" />
    <glyph glyph-name="question" unicode="?" horiz-adv-x="1045" 
d="M368 391v38q0 182 28.5 229.5t150.5 137.5q64 47 89 87.5t25 100.5q0 74 -47 116.5t-114 42.5q-177 0 -199 -250l-274 39q31 226 165.5 342t328.5 116q198 0 332 -114t134 -289q0 -217 -223 -363q-97 -64 -117.5 -100t-20.5 -133h-258zM676 0h-314v302h314v-302z" />
    <glyph glyph-name="at" unicode="@" horiz-adv-x="1591" 
d="M1144 1027l-55 -451q-5 -45 -5 -78q0 -44 39 -44q70 0 138 91t68 229q0 202 -146 334.5t-358 132.5q-229 0 -387 -162t-158 -402q0 -222 147.5 -387t415.5 -165q73 0 168.5 16.5t259.5 99.5l66 -165q-240 -125 -494 -125q-223 0 -391.5 89.5t-270.5 261.5t-102 376
q0 310 217 519t526 209q295 0 492 -184.5t197 -443.5q0 -205 -120.5 -350t-286.5 -145q-113 0 -171 87q-76 -91 -185 -91q-120 0 -206 103t-86 271q0 172 96.5 281t232.5 109q87 0 158 -59l12 43h189zM762 472q63 0 115 64.5t52 169.5q0 56 -38.5 100t-93.5 44
q-61 0 -101 -56t-40 -148q0 -74 28.5 -124t77.5 -50z" />
    <glyph glyph-name="A" unicode="A" horiz-adv-x="1245" 
d="M808 1365l427 -1365h-344l-83 281h-442l-86 -281h-280l437 1365h371zM443 533h290l-145 479z" />
    <glyph glyph-name="B" unicode="B" horiz-adv-x="1334" 
d="M137 1365h636q171 0 257 -42t142 -120t56 -190q0 -227 -246 -303q142 -32 213 -127t71 -207q0 -153 -116 -264.5t-377 -111.5h-636v1365zM456 1124v-299h242q133 0 167.5 52.5t34.5 100.5q0 52 -28.5 89.5t-62.5 47t-134 9.5h-219zM456 582v-329h246q126 0 178 44t52 123
q0 66 -50 114t-166 48h-260z" />
    <glyph glyph-name="C" unicode="C" horiz-adv-x="1285" 
d="M1238 857l-335 -21q-7 289 -225 289q-250 0 -250 -445q0 -257 68 -348.5t190 -91.5q198 0 242 258l310 -19q-30 -245 -182.5 -372.5t-373.5 -127.5q-271 0 -440.5 187t-169.5 517q0 309 164 506t448 197q492 0 554 -529z" />
    <glyph glyph-name="D" unicode="D" horiz-adv-x="1328" 
d="M137 1365h417q255 0 380 -70.5t224 -223t99 -385.5q0 -293 -173 -489.5t-477 -196.5h-470v1365zM451 1114v-857h132q175 0 260 130.5t85 306.5q0 124 -48.5 229.5t-120.5 148t-173 42.5h-135z" />
    <glyph glyph-name="E" unicode="E" horiz-adv-x="1167" 
d="M1112 1105h-651v-280h512v-257h-512v-298h651v-270h-976v1365h976v-260z" />
    <glyph glyph-name="F" unicode="F" horiz-adv-x="1135" 
d="M1108 1095h-639v-306h505v-255h-505v-534h-332v1365h971v-270z" />
    <glyph glyph-name="G" unicode="G" horiz-adv-x="1315" 
d="M1200 730v-730h-146q-16 77 -46 157q-146 -178 -372 -178q-267 0 -415.5 191t-148.5 494q0 326 158.5 524t430.5 198q228 0 368 -128t171 -341l-304 -40q-37 248 -235 248q-130 0 -196.5 -117.5t-66.5 -335.5q0 -210 72 -321t205 -111q86 0 153.5 56t67.5 179h-257v255
h561z" />
    <glyph glyph-name="H" unicode="H" horiz-adv-x="1328" 
d="M1192 1365v-1365h-314v563h-427v-563h-314v1365h314v-532h427v532h314z" />
    <glyph glyph-name="I" unicode="I" horiz-adv-x="593" 
d="M456 1365v-1365h-319v1365h319z" />
    <glyph glyph-name="J" unicode="J" horiz-adv-x="780" 
d="M657 1365v-974q0 -208 -99.5 -310t-327.5 -102q-100 0 -216 21v265q95 -16 163 -16q60 0 94.5 21.5t50.5 52.5t16 108v934h319z" />
    <glyph glyph-name="K" unicode="K" horiz-adv-x="1291" 
d="M451 1365v-642l428 642h306l-328 -487l410 -878h-353l-271 592l-192 -279v-313h-314v1365h314z" />
    <glyph glyph-name="L" unicode="L" horiz-adv-x="1031" 
d="M461 270h543v-270h-867v1365h324v-1095z" />
    <glyph glyph-name="M" unicode="M" horiz-adv-x="1761" 
d="M740 0l-336 1113v-1113h-268v1365h498l239 -817l252 817h499v-1365h-322v1113l-343 -1113h-219z" />
    <glyph glyph-name="N" unicode="N" horiz-adv-x="1324" 
d="M1188 1365v-1365h-273l-535 922q1 -35 2 -46q4 -35 4 -59v-817h-249v1365h345l465 -805q-6 60 -6 91v714h247z" />
    <glyph glyph-name="O" unicode="O" horiz-adv-x="1309" 
d="M650 -21q-276 0 -427 207t-151 501q0 299 153 499t436 200q286 0 431.5 -213.5t145.5 -488.5q0 -297 -150 -501t-438 -204zM659 1125q-252 0 -252 -442q0 -443 252 -443q244 0 244 442q0 443 -244 443z" />
    <glyph glyph-name="P" unicode="P" horiz-adv-x="1236" 
d="M461 507v-507h-325v1365h538q180 0 275.5 -38.5t170.5 -137.5t75 -243q0 -101 -40 -197t-113 -151t-141.5 -73t-214.5 -18h-225zM450 755h208q119 0 167 55t48 126q0 83 -53.5 132t-162.5 49h-207v-362z" />
    <glyph glyph-name="Q" unicode="Q" horiz-adv-x="1318" 
d="M1200 -269q-58 -13 -114 -13q-183 0 -245 78.5t-72 197.5q-77 -9 -129 -9q-259 0 -413.5 202.5t-154.5 495.5q0 286 149 494.5t439 208.5q286 0 436 -207.5t150 -498.5q0 -234 -85.5 -389.5t-201.5 -222.5q0 -105 120 -105q35 0 121 10v-242zM659 1125q-252 0 -252 -442
q0 -444 251 -444q254 0 254 438q0 448 -253 448z" />
    <glyph glyph-name="R" unicode="R" horiz-adv-x="1346" 
d="M459 541v-541h-322v1365h600q166 0 266.5 -38.5t166.5 -141.5t66 -229q0 -246 -237 -353l252 -603h-353l-210 541h-229zM459 1122v-348h196q96 0 139.5 13.5t77.5 60t34 106.5q0 57 -34 102t-74 55.5t-150 10.5h-189z" />
    <glyph glyph-name="S" unicode="S" horiz-adv-x="1189" 
d="M1080 1065l-272 -91q-55 162 -233 162q-190 0 -190 -123q0 -49 35.5 -83t160.5 -59q209 -42 306 -85t163.5 -138.5t66.5 -213.5q0 -185 -142.5 -320t-422.5 -135q-210 0 -357.5 95.5t-194.5 283.5l296 67q50 -191 278 -191q110 0 164 42.5t54 101.5q0 60 -49 93t-189 62
q-261 54 -372 147.5t-111 273.5q0 182 132.5 307t359.5 125q402 0 517 -321z" />
    <glyph glyph-name="T" unicode="T" horiz-adv-x="1002" 
d="M1002 1365v-270h-338v-1095h-324v1095h-340v270h1002z" />
    <glyph glyph-name="U" unicode="U" horiz-adv-x="1330" 
d="M1213 1365v-850q0 -206 -47 -306.5t-173.5 -165t-323.5 -64.5t-313.5 58t-174.5 165t-58 313v850h347v-850q0 -110 18.5 -162t74 -82.5t136.5 -30.5q90 0 146.5 30t75 79.5t18.5 165.5v850h274z" />
    <glyph glyph-name="V" unicode="V" horiz-adv-x="1138" 
d="M1151 1365l-411 -1365h-344l-410 1365h340l273 -976l283 976h269z" />
    <glyph glyph-name="W" unicode="W" horiz-adv-x="1788" 
d="M1775 1365l-344 -1365h-313l-225 903l-216 -903h-312l-351 1365h326l188 -833q1 -6 11 -44q4 -14 11 -42l223 919h295l230 -919q7 26 20 86l194 833h263z" />
    <glyph glyph-name="X" unicode="X" horiz-adv-x="1228" 
d="M1175 1365l-373 -634l422 -731h-370l-274 496l-274 -496h-303l422 726l-374 639h372l221 -415l232 415h299z" />
    <glyph glyph-name="Y" unicode="Y" horiz-adv-x="1068" 
d="M1123 1365l-429 -790v-575h-320v575l-429 790h371l261 -518l259 518h287z" />
    <glyph glyph-name="Z" unicode="Z" horiz-adv-x="1184" 
d="M1121 1130l-690 -869h712v-261h-1102v232l688 875h-642v258h1034v-235z" />
    <glyph glyph-name="bracketleft" unicode="[" horiz-adv-x="601" 
d="M539 -217v-124h-430v1706h430v-128h-198v-1454h198z" />
    <glyph glyph-name="backslash" unicode="\" horiz-adv-x="1096" 
d="M1028 -341l-973 1706h201l975 -1706h-203z" />
    <glyph glyph-name="bracketright" unicode="]" horiz-adv-x="601" 
d="M62 1241v124h430v-1706h-430v128h198v1454h-198z" />
    <glyph glyph-name="asciicircum" unicode="^" horiz-adv-x="1024" 
d="M296 685h-287l323 689h360l323 -689h-287l-216 470z" />
    <glyph glyph-name="underscore" unicode="_" horiz-adv-x="1024" 
d="M0 -94h1024v-239h-1024v239z" />
    <glyph glyph-name="grave" unicode="`" horiz-adv-x="1024" 
d="M309 1516l414 -243l-50 -112l-440 187z" />
    <glyph glyph-name="a" unicode="a" horiz-adv-x="1109" 
d="M1005 0h-289q-14 60 -14 158q-76 -108 -151.5 -143.5t-171.5 -35.5q-142 0 -229.5 77t-87.5 207q0 95 51 175t164 125.5t412 67.5v58q0 147 -147 147q-157 0 -175 -147l-275 26q27 172 163 244t308 72q103 0 194 -24t142 -72t69 -101.5t18 -186.5v-458q0 -132 19 -189z
M689 484q-313 -31 -313 -189q0 -53 33 -91.5t94 -38.5q79 0 132.5 65.5t53.5 161.5v92z" />
    <glyph glyph-name="b" unicode="b" horiz-adv-x="1115" 
d="M421 1365v-482q80 148 250 148q174 0 275 -140.5t101 -385.5q0 -236 -104 -381t-300 -145q-102 0 -166 35t-129 141q-28 -29 -66 -155h-159v1365h298zM421 400q0 -106 44.5 -160t106.5 -54q74 0 122 65.5t48 254.5q0 215 -49.5 270t-112.5 55q-73 0 -116 -62t-43 -176
v-193z" />
    <glyph glyph-name="c" unicode="c" horiz-adv-x="1048" 
d="M1011 379q-17 -179 -141.5 -289.5t-321.5 -110.5q-214 0 -348.5 141.5t-134.5 378.5t137.5 384.5t367.5 147.5q185 0 306.5 -111t134.5 -278l-278 -16q-14 182 -158 182q-177 0 -177 -290q0 -193 49.5 -245t120.5 -52q138 0 165 175z" />
    <glyph glyph-name="d" unicode="d" horiz-adv-x="1105" 
d="M981 1365v-1365h-275v158q-102 -179 -278 -179q-167 0 -263.5 136.5t-96.5 378.5q0 252 96.5 394.5t279.5 142.5q161 0 248 -127v461h289zM692 587q0 238 -144 238q-172 0 -172 -336q0 -299 161 -299q62 0 108.5 54t46.5 154v189z" />
    <glyph glyph-name="e" unicode="e" horiz-adv-x="1095" 
d="M1030 455h-650q-1 -27 -1 -47q0 -108 57.5 -163t137.5 -55q149 0 179 159l270 -20q-113 -350 -459 -350q-151 0 -256.5 60.5t-174 176.5t-68.5 278q0 241 137.5 389t353.5 148q195 0 334.5 -137.5t139.5 -438.5zM379 628h359q-14 208 -171 208q-168 0 -188 -208z" />
    <glyph glyph-name="f" unicode="f" horiz-adv-x="655" 
d="M434 778v-778h-290v778h-117v232h117q2 156 22.5 227.5t105.5 127t231 55.5q60 0 138 -11v-230q-64 5 -106 5q-61 0 -81 -32t-20 -104v-38h183v-232h-183z" />
    <glyph glyph-name="g" unicode="g" horiz-adv-x="1133" 
d="M1132 987q-47 10 -79 10q-99 0 -116 -88q81 -85 81 -192q0 -143 -119.5 -228t-344.5 -85q-80 0 -156 15q-51 -30 -51 -77q0 -52 43 -69t207 -25q233 -12 321 -29t148 -82t60 -162q0 -139 -128.5 -235t-455.5 -96q-307 0 -414 66.5t-107 168.5q0 135 173 182
q-128 64 -128 180q0 145 202 226q-179 74 -179 247q0 141 123.5 229t341.5 88q138 0 267 -44q9 86 50.5 141.5t176.5 55.5q44 0 84 -8v-189zM552 870q-77 0 -120.5 -41.5t-43.5 -109.5q0 -154 165 -154q80 0 125.5 45t45.5 109q0 60 -43 105.5t-129 45.5zM353 7
q-18 0 -45.5 -24t-27.5 -58q0 -68 87 -85t204 -17q153 0 214.5 23t61.5 74q0 39 -51.5 60t-274.5 21l-60 -1q-55 0 -74 3q-21 4 -34 4z" />
    <glyph glyph-name="h" unicode="h" horiz-adv-x="1114" 
d="M412 1365v-493q82 159 273 159q102 0 174.5 -44.5t102 -114.5t29.5 -205v-667h-297v569q0 102 -8 140t-36.5 63.5t-71.5 25.5q-56 0 -111 -43.5t-55 -185.5v-569h-289v1365h289z" />
    <glyph glyph-name="i" unicode="i" horiz-adv-x="543" 
d="M421 1010v-1010h-298v1010h298zM421 1393v-298h-298v298h298z" />
    <glyph glyph-name="j" unicode="j" horiz-adv-x="550" 
d="M427 1010v-955q0 -80 -2 -146.5t-36 -134.5t-107.5 -103.5t-180.5 -35.5q-61 0 -163 17v234q47 -5 69 -5q60 0 87.5 35.5t27.5 138.5v955h305zM427 1393v-301h-305v301h305z" />
    <glyph glyph-name="k" unicode="k" horiz-adv-x="1112" 
d="M790 668l329 -668h-329l-211 458l-175 -200v-258h-281v1365h281v-818l44 55q28 38 47 61l295 347h290z" />
    <glyph glyph-name="l" unicode="l" horiz-adv-x="543" 
d="M123 0v1365h298v-1365h-298z" />
    <glyph glyph-name="m" unicode="m" horiz-adv-x="1688" 
d="M1565 0h-298v559q0 118 -7 153.5t-36.5 59t-81.5 23.5q-49 0 -100 -35t-51 -201v-559h-297v559q0 121 -11 156.5t-41.5 57.5t-77.5 22q-77 0 -114.5 -48.5t-37.5 -187.5v-559h-289v1010h280v-154q71 175 284 175q193 0 279 -175q84 175 293 175q100 0 172 -41t103 -107
t31 -227v-656z" />
    <glyph glyph-name="n" unicode="n" horiz-adv-x="1124" 
d="M1001 0h-298v567q0 103 -8 141t-39 64.5t-78 26.5q-157 0 -157 -232v-567h-298v1010h277v-171q69 122 136 157t145 35q144 0 232 -77.5t88 -304.5v-649z" />
    <glyph glyph-name="o" unicode="o" horiz-adv-x="1096" 
d="M542 1031q231 0 360.5 -151t129.5 -378q0 -224 -134.5 -373.5t-357.5 -149.5q-216 0 -345.5 148t-129.5 380q0 161 58.5 273.5t160.5 181.5t258 69zM550 836q-85 0 -128 -65.5t-43 -260.5q0 -179 41 -257t128 -78q76 0 123 66.5t47 253.5q0 199 -41.5 270t-126.5 71z" />
    <glyph glyph-name="p" unicode="p" horiz-adv-x="1105" 
d="M123 -341v1351h274v-148q76 169 266 169q164 0 268.5 -131.5t104.5 -382.5q0 -267 -105.5 -402.5t-274.5 -135.5q-171 0 -244 133v-453h-289zM412 442q0 -107 13 -148t55 -73.5t91 -32.5q61 0 109 62.5t48 275.5q0 299 -158 299q-60 0 -109 -53t-49 -180v-150z" />
    <glyph glyph-name="q" unicode="q" horiz-adv-x="1114" 
d="M1005 1010q-14 -90 -14 -139v-1212h-290v446q-93 -126 -240 -126q-187 0 -290 140t-103 385q0 246 109.5 386.5t305.5 140.5q193 0 285 -160q49 66 75 139h162zM701 619q0 98 -45 154t-107 56q-68 0 -117.5 -57t-49.5 -272q0 -185 42.5 -249t113.5 -64q65 0 114 64
t49 165v203z" />
    <glyph glyph-name="r" unicode="r" horiz-adv-x="711" 
d="M412 0h-289v1010h273v-188q63 210 218 210q22 0 54 -3v-294q-91 0 -141.5 -28t-82.5 -100.5t-32 -195.5v-411z" />
    <glyph glyph-name="s" unicode="s" horiz-adv-x="969" 
d="M879 766l-217 -58q-38 137 -197 137q-150 0 -150 -91q0 -36 27.5 -57.5t143.5 -36.5q173 -23 256 -53t131.5 -101t48.5 -175q0 -156 -118.5 -254t-331.5 -98q-386 0 -461 299l251 37q31 -136 224 -136q74 0 125 26.5t51 71.5q0 70 -113 83q-306 38 -402.5 117.5
t-96.5 221.5q0 144 112 238t314 94q160 0 256 -63t147 -202z" />
    <glyph glyph-name="t" unicode="t" horiz-adv-x="720" 
d="M458 778v-427q0 -80 24 -107t113 -27q41 0 95 4v-221q-130 -22 -187 -22q-186 0 -264 71.5t-78 258.5v470h-160v232h177l24 298l256 20v-318h218v-232h-218z" />
    <glyph glyph-name="u" unicode="u" horiz-adv-x="1109" 
d="M986 1010v-1010h-276v172q-78 -193 -298 -193q-114 0 -175 42.5t-87.5 116t-26.5 212.5v660h289v-660q0 -136 112 -136q57 0 99 32.5t53.5 69.5t11.5 127v567h298z" />
    <glyph glyph-name="v" unicode="v" horiz-adv-x="924" 
d="M917 1010l-346 -1010h-232l-346 1010h310l194 -640l199 640h221z" />
    <glyph glyph-name="w" unicode="w" horiz-adv-x="1477" 
d="M1459 1010l-304 -1010h-263l-160 650l-159 -650h-251l-311 1010h311l164 -617l154 617h270l148 -621l171 621h230z" />
    <glyph glyph-name="x" unicode="x" horiz-adv-x="1011" 
d="M962 1010l-291 -467l340 -543h-340l-210 348l-206 -348h-255l333 543l-287 467h340l161 -273l160 273h255z" />
    <glyph glyph-name="y" unicode="y" horiz-adv-x="912" 
d="M905 1010l-316 -969q-53 -162 -90.5 -234.5t-108 -116t-196.5 -43.5q-63 0 -143 12v229q79 -14 146 -14q88 0 118 33t45 93l-367 1010h315l194 -601l186 601h217z" />
    <glyph glyph-name="z" unicode="z" horiz-adv-x="877" 
d="M816 1010v-186l-450 -607h470v-217h-795v217l445 590h-408v203h738z" />
    <glyph glyph-name="braceleft" unicode="{" horiz-adv-x="601" 
d="M322 512q123 -64 123 -239v-361q0 -84 12.5 -108t71.5 -24l37 1v-118q-32 0 -93 -3q-34 -2 -42 -2q-123 0 -179 61.5t-56 211.5v372q0 84 -27.5 118.5t-85.5 45.5v109q113 16 113 144v373q0 150 56 211.5t179 61.5q8 0 42 -2q48 -2 93 -3v-118l-30 1q-60 0 -75.5 -20.5
t-15.5 -111.5v-362q0 -60 -18.5 -124t-104.5 -114z" />
    <glyph glyph-name="bar" unicode="|" horiz-adv-x="1024" 
d="M371 1365h283v-1706h-283v1706z" />
    <glyph glyph-name="braceright" unicode="}" horiz-adv-x="601" 
d="M327 512q-123 64 -123 239v361q0 84 -12.5 108t-71.5 24l-37 -1v118q30 0 93 3q34 2 43 2q132 0 183 -66t51 -207v-372q0 -97 36.5 -128t76.5 -36v-109q-113 -16 -113 -144v-373q0 -150 -56 -211.5t-179 -61.5q-8 0 -42 2q-47 2 -93 3v118l31 -1q60 0 75 20.5t15 111.5
v362q0 61 19 125t104 113z" />
    <glyph glyph-name="asciitilde" unicode="~" horiz-adv-x="1201" 
d="M254 474l-152 104q65 165 137 226.5t175 61.5q68 0 214 -54q128 -47 173 -47q87 0 142 105l156 -96q-117 -278 -326 -278q-52 0 -204 54q-134 47 -171 47q-88 0 -144 -123z" />
    <glyph glyph-name="Adieresis" unicode="&#xc4;" horiz-adv-x="1245" 
d="M808 1365l427 -1365h-344l-83 281h-442l-86 -281h-280l437 1365h371zM443 533h290l-145 479zM765 1479q-54 0 -86 35t-32 80q0 46 33.5 81.5t85.5 35.5q48 0 84 -31t36 -85q0 -53 -35.5 -84.5t-85.5 -31.5zM431 1479q-54 0 -86 35t-32 80q0 46 33 81.5t85 35.5
q47 0 84 -30.5t37 -85.5q0 -53 -35.5 -84.5t-85.5 -31.5z" />
    <glyph glyph-name="Aring" unicode="&#xc5;" horiz-adv-x="1245" 
d="M808 1365l427 -1365h-344l-83 281h-442l-86 -281h-280l437 1365h371zM443 533h290l-145 479zM617 1449q-82 0 -135.5 58.5t-53.5 129.5q0 72 53.5 130t136.5 58t139 -55t56 -131q0 -77 -56.5 -133.5t-139.5 -56.5zM620 1561q33 0 57 22.5t24 53.5t-23.5 53.5t-56.5 22.5
q-35 0 -58 -23t-23 -53q0 -31 23.5 -53.5t56.5 -22.5z" />
    <glyph glyph-name="Ccedilla" unicode="&#xc7;" horiz-adv-x="1285" 
d="M675 -21l-27 -82q32 5 55 5q78 0 133.5 -47.5t55.5 -119.5q0 -84 -67 -132t-157 -48q-132 0 -250 68l35 85q102 -48 159 -48q45 0 70.5 22t25.5 54q0 38 -33 60t-84 22q-25 0 -79 -9l54 180q-238 46 -366 230t-128 464q0 309 164 506t448 197q492 0 554 -529l-335 -21
q-7 289 -225 289q-250 0 -250 -445q0 -257 68 -348.5t190 -91.5q198 0 242 258l310 -19q-71 -487 -563 -500z" />
    <glyph glyph-name="Eacute" unicode="&#xc9;" horiz-adv-x="1167" 
d="M1112 1105h-651v-280h512v-257h-512v-298h651v-270h-976v1365h976v-260zM879 1832l76 -168l-440 -187l-50 112z" />
    <glyph glyph-name="Ntilde" unicode="&#xd1;" horiz-adv-x="1324" 
d="M1188 1365v-1365h-273l-535 922q1 -35 2 -46q4 -35 4 -59v-817h-249v1365h345l465 -805q-6 60 -6 91v714h247zM1018 1646q-98 -129 -222 -129q-60 0 -160 47q-49 22 -80 22q-62 0 -129 -65l-85 113q100 109 212 109q64 0 148 -40q60 -29 91 -29q69 0 141 83z" />
    <glyph glyph-name="Odieresis" unicode="&#xd6;" horiz-adv-x="1309" 
d="M650 -21q-276 0 -427 207t-151 501q0 299 153 499t436 200q286 0 431.5 -213.5t145.5 -488.5q0 -297 -150 -501t-438 -204zM659 1125q-252 0 -252 -442q0 -443 252 -443q244 0 244 442q0 443 -244 443zM833 1511q-54 0 -86 35t-32 80q0 46 33.5 81.5t85.5 35.5
q48 0 84 -31t36 -85q0 -53 -35.5 -84.5t-85.5 -31.5zM499 1511q-54 0 -86 35t-32 80q0 46 33 81.5t85 35.5q47 0 84 -30.5t37 -85.5q0 -53 -35.5 -84.5t-85.5 -31.5z" />
    <glyph glyph-name="Udieresis" unicode="&#xdc;" horiz-adv-x="1330" 
d="M1213 1365v-850q0 -206 -47 -306.5t-173.5 -165t-323.5 -64.5t-313.5 58t-174.5 165t-58 313v850h347v-850q0 -110 18.5 -162t74 -82.5t136.5 -30.5q90 0 146.5 30t75 79.5t18.5 165.5v850h274zM849 1515q-54 0 -86 35t-32 80q0 46 33.5 81.5t85.5 35.5q48 0 84 -31
t36 -85q0 -53 -35.5 -84.5t-85.5 -31.5zM515 1515q-54 0 -86 35t-32 80q0 46 33 81.5t85 35.5q47 0 84 -30.5t37 -85.5q0 -53 -35.5 -84.5t-85.5 -31.5z" />
    <glyph glyph-name="aacute" unicode="&#xe1;" horiz-adv-x="1109" 
d="M1005 0h-289q-14 60 -14 158q-76 -108 -151.5 -143.5t-171.5 -35.5q-142 0 -229.5 77t-87.5 207q0 95 51 175t164 125.5t412 67.5v58q0 147 -147 147q-157 0 -175 -147l-275 26q27 172 163 244t308 72q103 0 194 -24t142 -72t69 -101.5t18 -186.5v-458q0 -132 19 -189z
M689 484q-313 -31 -313 -189q0 -53 33 -91.5t94 -38.5q79 0 132.5 65.5t53.5 161.5v92zM819 1516l76 -168l-440 -187l-50 112z" />
    <glyph glyph-name="agrave" unicode="&#xe0;" horiz-adv-x="1109" 
d="M1005 0h-289q-14 60 -14 158q-76 -108 -151.5 -143.5t-171.5 -35.5q-142 0 -229.5 77t-87.5 207q0 95 51 175t164 125.5t412 67.5v58q0 147 -147 147q-157 0 -175 -147l-275 26q27 172 163 244t308 72q103 0 194 -24t142 -72t69 -101.5t18 -186.5v-458q0 -132 19 -189z
M689 484q-313 -31 -313 -189q0 -53 33 -91.5t94 -38.5q79 0 132.5 65.5t53.5 161.5v92zM317 1516l414 -243l-50 -112l-440 187z" />
    <glyph glyph-name="acircumflex" unicode="&#xe2;" horiz-adv-x="1109" 
d="M1005 0h-289q-14 60 -14 158q-76 -108 -151.5 -143.5t-171.5 -35.5q-142 0 -229.5 77t-87.5 207q0 95 51 175t164 125.5t412 67.5v58q0 147 -147 147q-157 0 -175 -147l-275 26q27 172 163 244t308 72q103 0 194 -24t142 -72t69 -101.5t18 -186.5v-458q0 -132 19 -189z
M689 484q-313 -31 -313 -189q0 -53 33 -91.5t94 -38.5q79 0 132.5 65.5t53.5 161.5v92zM928 1188l-203 -21l-164 138l-164 -138l-202 21l366 314z" />
    <glyph glyph-name="adieresis" unicode="&#xe4;" horiz-adv-x="1109" 
d="M1005 0h-289q-14 60 -14 158q-76 -108 -151.5 -143.5t-171.5 -35.5q-142 0 -229.5 77t-87.5 207q0 95 51 175t164 125.5t412 67.5v58q0 147 -147 147q-157 0 -175 -147l-275 26q27 172 163 244t308 72q103 0 194 -24t142 -72t69 -101.5t18 -186.5v-458q0 -132 19 -189z
M689 484q-313 -31 -313 -189q0 -53 33 -91.5t94 -38.5q79 0 132.5 65.5t53.5 161.5v92zM726 1191q-54 0 -86 35t-32 80q0 46 33.5 81.5t85.5 35.5q48 0 84 -31t36 -85q0 -53 -35.5 -84.5t-85.5 -31.5zM392 1191q-54 0 -86 35t-32 80q0 46 33 81.5t85 35.5q47 0 84 -30.5
t37 -85.5q0 -53 -35.5 -84.5t-85.5 -31.5z" />
    <glyph glyph-name="atilde" unicode="&#xe3;" horiz-adv-x="1109" 
d="M1005 0h-289q-14 60 -14 158q-76 -108 -151.5 -143.5t-171.5 -35.5q-142 0 -229.5 77t-87.5 207q0 95 51 175t164 125.5t412 67.5v58q0 147 -147 147q-157 0 -175 -147l-275 26q27 172 163 244t308 72q103 0 194 -24t142 -72t69 -101.5t18 -186.5v-458q0 -132 19 -189z
M689 484q-313 -31 -313 -189q0 -53 33 -91.5t94 -38.5q79 0 132.5 65.5t53.5 161.5v92zM906 1318q-98 -129 -222 -129q-60 0 -160 47q-49 22 -80 22q-62 0 -129 -65l-85 113q100 109 212 109q64 0 148 -40q60 -29 91 -29q69 0 141 83z" />
    <glyph glyph-name="aring" unicode="&#xe5;" horiz-adv-x="1109" 
d="M1005 0h-289q-14 60 -14 158q-76 -108 -151.5 -143.5t-171.5 -35.5q-142 0 -229.5 77t-87.5 207q0 95 51 175t164 125.5t412 67.5v58q0 147 -147 147q-157 0 -175 -147l-275 26q27 172 163 244t308 72q103 0 194 -24t142 -72t69 -101.5t18 -186.5v-458q0 -132 19 -189z
M689 484q-313 -31 -313 -189q0 -53 33 -91.5t94 -38.5q79 0 132.5 65.5t53.5 161.5v92zM558 1137q-82 0 -135.5 58.5t-53.5 129.5q0 72 53.5 130t136.5 58t139 -55t56 -131q0 -77 -56.5 -133.5t-139.5 -56.5zM561 1249q33 0 57 22.5t24 53.5t-23.5 53.5t-56.5 22.5
q-35 0 -58 -23t-23 -53q0 -31 23.5 -53.5t56.5 -22.5z" />
    <glyph glyph-name="ccedilla" unicode="&#xe7;" horiz-adv-x="1048" 
d="M568 -20l-28 -80q19 3 29 3q76 0 125.5 -44t49.5 -107q0 -75 -55.5 -120t-148.5 -45q-104 0 -208 59l33 86q83 -46 136 -46q72 0 72 65q0 35 -31.5 54t-75.5 19q-19 0 -53 -4l58 164q-180 23 -293 161t-113 354q0 237 137.5 384.5t367.5 147.5q185 0 306.5 -111
t134.5 -278l-278 -16q-14 182 -158 182q-177 0 -177 -290q0 -193 49.5 -245t120.5 -52q138 0 165 175l278 -17q-49 -373 -443 -399z" />
    <glyph glyph-name="eacute" unicode="&#xe9;" horiz-adv-x="1095" 
d="M1030 455h-650q-1 -27 -1 -47q0 -108 57.5 -163t137.5 -55q149 0 179 159l270 -20q-113 -350 -459 -350q-151 0 -256.5 60.5t-174 176.5t-68.5 278q0 241 137.5 389t353.5 148q195 0 334.5 -137.5t139.5 -438.5zM379 628h359q-14 208 -171 208q-168 0 -188 -208z
M819 1516l76 -168l-440 -187l-50 112z" />
    <glyph glyph-name="egrave" unicode="&#xe8;" horiz-adv-x="1095" 
d="M1030 455h-650q-1 -27 -1 -47q0 -108 57.5 -163t137.5 -55q149 0 179 159l270 -20q-113 -350 -459 -350q-151 0 -256.5 60.5t-174 176.5t-68.5 278q0 241 137.5 389t353.5 148q195 0 334.5 -137.5t139.5 -438.5zM379 628h359q-14 208 -171 208q-168 0 -188 -208z
M338 1516l414 -243l-50 -112l-440 187z" />
    <glyph glyph-name="ecircumflex" unicode="&#xea;" horiz-adv-x="1095" 
d="M1030 455h-650q-1 -27 -1 -47q0 -108 57.5 -163t137.5 -55q149 0 179 159l270 -20q-113 -350 -459 -350q-151 0 -256.5 60.5t-174 176.5t-68.5 278q0 241 137.5 389t353.5 148q195 0 334.5 -137.5t139.5 -438.5zM379 628h359q-14 208 -171 208q-168 0 -188 -208z
M941 1188l-203 -21l-164 138l-164 -138l-202 21l366 314z" />
    <glyph glyph-name="edieresis" unicode="&#xeb;" horiz-adv-x="1095" 
d="M1030 455h-650q-1 -27 -1 -47q0 -108 57.5 -163t137.5 -55q149 0 179 159l270 -20q-113 -350 -459 -350q-151 0 -256.5 60.5t-174 176.5t-68.5 278q0 241 137.5 389t353.5 148q195 0 334.5 -137.5t139.5 -438.5zM379 628h359q-14 208 -171 208q-168 0 -188 -208z
M740 1191q-54 0 -86 35t-32 80q0 46 33.5 81.5t85.5 35.5q48 0 84 -31t36 -85q0 -53 -35.5 -84.5t-85.5 -31.5zM406 1191q-54 0 -86 35t-32 80q0 46 33 81.5t85 35.5q47 0 84 -30.5t37 -85.5q0 -53 -35.5 -84.5t-85.5 -31.5z" />
    <glyph glyph-name="iacute" unicode="&#xed;" horiz-adv-x="543" 
d="M421 1010v-1010h-298v1010h298zM503 1516l76 -168l-440 -187l-50 112z" />
    <glyph glyph-name="igrave" unicode="&#xec;" horiz-adv-x="543" 
d="M421 1010v-1010h-298v1010h298zM41 1516l414 -243l-50 -112l-440 187z" />
    <glyph glyph-name="icircumflex" unicode="&#xee;" horiz-adv-x="543" 
d="M421 1010v-1010h-298v1010h298zM639 1188l-203 -21l-164 138l-164 -138l-202 21l366 314z" />
    <glyph glyph-name="idieresis" unicode="&#xef;" horiz-adv-x="543" 
d="M424 1010v-1010h-298v1010h298zM458 1192q-54 0 -86 35t-32 80q0 46 33.5 81.5t85.5 35.5q48 0 84 -31t36 -85q0 -53 -35.5 -84.5t-85.5 -31.5zM124 1192q-54 0 -86 35t-32 80q0 46 33 81.5t85 35.5q47 0 84 -30.5t37 -85.5q0 -53 -35.5 -84.5t-85.5 -31.5z" />
    <glyph glyph-name="ntilde" unicode="&#xf1;" horiz-adv-x="1124" 
d="M1001 0h-298v567q0 103 -8 141t-39 64.5t-78 26.5q-157 0 -157 -232v-567h-298v1010h277v-171q69 122 136 157t145 35q144 0 232 -77.5t88 -304.5v-649zM886 1318q-98 -129 -222 -129q-60 0 -160 47q-49 22 -80 22q-62 0 -129 -65l-85 113q100 109 212 109q64 0 148 -40
q60 -29 91 -29q69 0 141 83z" />
    <glyph glyph-name="oacute" unicode="&#xf3;" horiz-adv-x="1096" 
d="M542 1031q231 0 360.5 -151t129.5 -378q0 -224 -134.5 -373.5t-357.5 -149.5q-216 0 -345.5 148t-129.5 380q0 161 58.5 273.5t160.5 181.5t258 69zM550 836q-85 0 -128 -65.5t-43 -260.5q0 -179 41 -257t128 -78q76 0 123 66.5t47 253.5q0 199 -41.5 270t-126.5 71z
M799 1516l76 -168l-440 -187l-50 112z" />
    <glyph glyph-name="ograve" unicode="&#xf2;" horiz-adv-x="1096" 
d="M542 1031q231 0 360.5 -151t129.5 -378q0 -224 -134.5 -373.5t-357.5 -149.5q-216 0 -345.5 148t-129.5 380q0 161 58.5 273.5t160.5 181.5t258 69zM550 836q-85 0 -128 -65.5t-43 -260.5q0 -179 41 -257t128 -78q76 0 123 66.5t47 253.5q0 199 -41.5 270t-126.5 71z
M325 1516l414 -243l-50 -112l-440 187z" />
    <glyph glyph-name="ocircumflex" unicode="&#xf4;" horiz-adv-x="1096" 
d="M542 1031q231 0 360.5 -151t129.5 -378q0 -224 -134.5 -373.5t-357.5 -149.5q-216 0 -345.5 148t-129.5 380q0 161 58.5 273.5t160.5 181.5t258 69zM550 836q-85 0 -128 -65.5t-43 -260.5q0 -179 41 -257t128 -78q76 0 123 66.5t47 253.5q0 199 -41.5 270t-126.5 71z
M922 1188l-203 -21l-164 138l-164 -138l-202 21l366 314z" />
    <glyph glyph-name="odieresis" unicode="&#xf6;" horiz-adv-x="1096" 
d="M542 1031q231 0 360.5 -151t129.5 -378q0 -224 -134.5 -373.5t-357.5 -149.5q-216 0 -345.5 148t-129.5 380q0 161 58.5 273.5t160.5 181.5t258 69zM550 836q-85 0 -128 -65.5t-43 -260.5q0 -179 41 -257t128 -78q76 0 123 66.5t47 253.5q0 199 -41.5 270t-126.5 71z
M720 1191q-54 0 -86 35t-32 80q0 46 33.5 81.5t85.5 35.5q48 0 84 -31t36 -85q0 -53 -35.5 -84.5t-85.5 -31.5zM386 1191q-54 0 -86 35t-32 80q0 46 33 81.5t85 35.5q47 0 84 -30.5t37 -85.5q0 -53 -35.5 -84.5t-85.5 -31.5z" />
    <glyph glyph-name="otilde" unicode="&#xf5;" horiz-adv-x="1096" 
d="M542 1031q231 0 360.5 -151t129.5 -378q0 -224 -134.5 -373.5t-357.5 -149.5q-216 0 -345.5 148t-129.5 380q0 161 58.5 273.5t160.5 181.5t258 69zM550 836q-85 0 -128 -65.5t-43 -260.5q0 -179 41 -257t128 -78q76 0 123 66.5t47 253.5q0 199 -41.5 270t-126.5 71z
M900 1318q-98 -129 -222 -129q-60 0 -160 47q-49 22 -80 22q-62 0 -129 -65l-85 113q100 109 212 109q64 0 148 -40q60 -29 91 -29q69 0 141 83z" />
    <glyph glyph-name="uacute" unicode="&#xfa;" horiz-adv-x="1109" 
d="M986 1010v-1010h-276v172q-78 -193 -298 -193q-114 0 -175 42.5t-87.5 116t-26.5 212.5v660h289v-660q0 -136 112 -136q57 0 99 32.5t53.5 69.5t11.5 127v567h298zM812 1516l76 -168l-440 -187l-50 112z" />
    <glyph glyph-name="ugrave" unicode="&#xf9;" horiz-adv-x="1109" 
d="M986 1010v-1010h-276v172q-78 -193 -298 -193q-114 0 -175 42.5t-87.5 116t-26.5 212.5v660h289v-660q0 -136 112 -136q57 0 99 32.5t53.5 69.5t11.5 127v567h298zM297 1516l414 -243l-50 -112l-440 187z" />
    <glyph glyph-name="ucircumflex" unicode="&#xfb;" horiz-adv-x="1109" 
d="M986 1010v-1010h-276v172q-78 -193 -298 -193q-114 0 -175 42.5t-87.5 116t-26.5 212.5v660h289v-660q0 -136 112 -136q57 0 99 32.5t53.5 69.5t11.5 127v567h298zM918 1188l-203 -21l-164 138l-164 -138l-202 21l366 314z" />
    <glyph glyph-name="udieresis" unicode="&#xfc;" horiz-adv-x="1109" 
d="M986 1010v-1010h-276v172q-78 -193 -298 -193q-114 0 -175 42.5t-87.5 116t-26.5 212.5v660h289v-660q0 -136 112 -136q57 0 99 32.5t53.5 69.5t11.5 127v567h298zM717 1191q-54 0 -86 35t-32 80q0 46 33.5 81.5t85.5 35.5q48 0 84 -31t36 -85q0 -53 -35.5 -84.5
t-85.5 -31.5zM383 1191q-54 0 -86 35t-32 80q0 46 33 81.5t85 35.5q47 0 84 -30.5t37 -85.5q0 -53 -35.5 -84.5t-85.5 -31.5z" />
    <glyph glyph-name="dagger" unicode="&#x2020;" horiz-adv-x="1201" 
d="M107 774v234h354v357h280v-357h354v-234h-354v-1103h-280v1103h-354z" />
    <glyph glyph-name="degree" unicode="&#xb0;" horiz-adv-x="1201" 
d="M603 816q-118 0 -202.5 85t-84.5 205q0 118 83 202.5t200 84.5q119 0 202.5 -86t83.5 -204q0 -120 -83 -203.5t-199 -83.5zM602 965q56 0 96 41t40 98q0 58 -40 99.5t-97 41.5t-97.5 -41t-40.5 -98q0 -59 41.5 -100t97.5 -41z" />
    <glyph glyph-name="cent" unicode="&#xa2;" horiz-adv-x="1201" 
d="M1071 570q-43 -309 -352 -365v-260h-161v260q-134 20 -220.5 93t-128.5 174.5t-42 222.5q0 211 107.5 345t283.5 149v212h161v-212q306 -43 357 -364l-264 -16q-23 178 -165 178q-182 0 -182 -305q0 -121 45.5 -194t136.5 -73q148 0 165 175z" />
    <glyph glyph-name="sterling" unicode="&#xa3;" horiz-adv-x="1201" 
d="M111 833h158q-15 92 -15 144q0 194 119 301.5t314 107.5q301 0 395 -259l-256 -102q-32 131 -136 131q-49 0 -88.5 -36t-39.5 -122q0 -43 19 -165h224v-210h-200q0 -133 -32.5 -209.5t-124.5 -158.5h205q177 0 232 191l277 -83q-96 -363 -497 -363h-651v255h89
q109 0 160.5 67.5t51.5 160.5q0 51 -16 140h-188v210z" />
    <glyph glyph-name="section" unicode="&#xa7;" horiz-adv-x="1201" 
d="M369 -13q99 -151 260 -151q91 0 143.5 34t52.5 85q0 53 -50 97t-253 117q-145 53 -212.5 92t-110.5 107.5t-43 158.5q0 174 136 301q-99 80 -99 216q0 146 113 244t317 98q319 0 434 -251l-213 -59q-51 124 -221 124q-85 0 -127 -30.5t-42 -73.5q0 -49 46 -77.5
t250 -106.5q112 -44 172 -82t98.5 -103.5t38.5 -153.5q0 -156 -127 -276q151 -95 151 -272q0 -176 -128 -281.5t-339 -105.5q-172 0 -307.5 73.5t-190.5 229.5zM737 391q75 54 75 114q0 38 -33.5 77.5t-170.5 92.5l-123 50q-80 -44 -80 -112q0 -54 55.5 -98.5t276.5 -123.5z
" />
    <glyph glyph-name="bullet" unicode="&#x2022;" horiz-adv-x="1365" 
d="M964 696q0 -117 -82.5 -201.5t-198.5 -84.5q-119 0 -200.5 84.5t-81.5 201.5q0 118 82.5 202t199.5 84q116 0 198.5 -84t82.5 -202z" />
    <glyph glyph-name="paragraph" unicode="&#xb6;" horiz-adv-x="1201" 
d="M1170 1365v-127h-164v-1579h-120v1579h-122v-1579h-127v1007h-195q-160 0 -243.5 25.5t-140.5 109.5t-57 215q0 107 38.5 182t103.5 114.5t120.5 45.5t283.5 7h623zM637 789v452h-53q-124 0 -179 -13.5t-89 -67t-34 -147.5q0 -95 34.5 -145t88 -64.5t175.5 -14.5h57z" />
    <glyph glyph-name="germandbls" unicode="&#xdf;" horiz-adv-x="1279" 
d="M26 710v224h104q0 263 153 402.5t395 139.5q190 0 303.5 -94.5t113.5 -222.5q0 -102 -74 -178t-169 -99q-102 -25 -116.5 -31t-14.5 -14q0 -12 109 -50q109 -39 165.5 -67.5t118 -86t90 -121.5t28.5 -138q0 -164 -129 -279.5t-346 -115.5q-111 0 -230 42l78 202
q110 -38 180 -38q75 0 121 37t46 90q0 59 -47.5 97t-198.5 103q-77 33 -117 60.5t-67.5 75t-27.5 106.5q0 119 111 226q190 43 190 151q0 58 -48 92t-110 34q-70 0 -117 -37.5t-63 -93t-16 -175.5v-1071h-311v830h-104z" />
    <glyph glyph-name="registered" unicode="&#xae;" horiz-adv-x="1584" 
d="M793 -22q-294 0 -499.5 208t-205.5 496t206 496t499 208q296 0 499.5 -210t203.5 -494q0 -282 -203 -493t-500 -211zM1365 682q0 240 -166.5 412t-402.5 172q-239 0 -408 -171t-169 -412t169.5 -412.5t404.5 -171.5t403.5 171t168.5 412zM669 599v-326h-213v819h368
q164 0 242 -68t78 -180q0 -147 -145 -211l158 -360h-235l-132 326h-121zM669 942v-199h111q84 0 115.5 26.5t31.5 76.5q0 33 -19 58.5t-42 31.5t-90 6h-107z" />
    <glyph glyph-name="copyright" unicode="&#xa9;" horiz-adv-x="1584" 
d="M793 -22q-294 0 -499.5 208t-205.5 496t206 496t499 208q296 0 499.5 -210t203.5 -494q0 -282 -203 -493t-500 -211zM1365 682q0 240 -166.5 412t-402.5 172q-239 0 -408 -171t-169 -412t169.5 -412.5t404.5 -171.5t403.5 171t168.5 412zM1165 787l-214 -12
q-5 174 -144 174q-160 0 -160 -276q0 -143 42.5 -200t120.5 -57q131 0 157 156l198 -12q-18 -146 -115.5 -222.5t-239.5 -76.5q-178 0 -284.5 113.5t-106.5 308.5q0 186 105.5 304t286.5 118q316 0 354 -318z" />
    <glyph glyph-name="trademark" unicode="&#x2122;" horiz-adv-x="1768" 
d="M648 1365v-164h-219v-614h-218v614h-218v164h655zM1110 587l-200 581v-581h-188v778h330l148 -443l157 443h330v-778h-219v591l-208 -591h-150z" />
    <glyph glyph-name="acute" unicode="&#xb4;" horiz-adv-x="1024" 
d="M715 1516l76 -168l-440 -187l-50 112z" />
    <glyph glyph-name="dieresis" unicode="&#xa8;" horiz-adv-x="1024" 
d="M677 1191q-54 0 -86 35t-32 80q0 46 33.5 81.5t85.5 35.5q48 0 84 -31t36 -85q0 -53 -35.5 -84.5t-85.5 -31.5zM343 1191q-54 0 -86 35t-32 80q0 46 33 81.5t85 35.5q47 0 84 -30.5t37 -85.5q0 -53 -35.5 -84.5t-85.5 -31.5z" />
    <glyph glyph-name="notequal" unicode="&#x2260;" horiz-adv-x="1201" 
d="M622 970l116 227l177 -93l-70 -134h199v-250h-311l-70 -135h381v-251h-491l-102 -198l-177 92l55 106h-172v251h282l71 135h-353v250h465z" />
    <glyph glyph-name="AE" unicode="&#xc6;" horiz-adv-x="1726" 
d="M1671 1107h-626v-280h500v-256h-500v-301h626v-270h-946v315h-319l-144 -315h-276l625 1365h1060v-258zM501 543h224v492z" />
    <glyph glyph-name="Oslash" unicode="&#xd8;" horiz-adv-x="1309" 
d="M1186 1476l-134 -248q186 -227 186 -546q0 -295 -150.5 -499t-448.5 -204q-139 0 -253 56l-81 -146h-181l137 251q-189 216 -189 538q0 293 147 500.5t445 207.5q141 0 255 -55l85 145h182zM435 453l354 633q-56 39 -132 39q-146 0 -198.5 -136t-52.5 -331
q0 -119 29 -205zM521 283q49 -43 145 -43q237 0 237 438q0 137 -25 244z" />
    <glyph glyph-name="infinity" unicode="&#x221e;" horiz-adv-x="1460" 
d="M653 668q71 169 159 222.5t212 53.5q161 0 272 -116.5t111 -301.5q0 -186 -111.5 -303t-238.5 -117q-95 0 -170.5 63t-165.5 224q-117 -233 -324 -233q-149 0 -246.5 104.5t-97.5 263.5q0 157 89 262t218 105q80 0 149 -42t144 -185zM750 465q64 -138 134.5 -201
t176.5 -63q126 0 207.5 91t81.5 234q0 140 -84 240t-199 100q-55 0 -97.5 -21.5t-74.5 -62t-64 -116.5zM614 557l11 33q-96 215 -267 215q-110 0 -179.5 -76.5t-69.5 -198.5q0 -123 66.5 -207.5t162.5 -84.5q82 0 149.5 65t126.5 254z" />
    <glyph glyph-name="plusminus" unicode="&#xb1;" horiz-adv-x="1201" 
d="M1107 799v-219h-397v-370h-218v370h-397v219h397v412h218v-412h397zM1107 116v-218h-1012v218h1012z" />
    <glyph glyph-name="lessequal" unicode="&#x2264;" horiz-adv-x="1201" 
d="M1024 1373v-263l-587 -269l587 -268v-263l-887 414v236zM1024 252v-252h-887v252h887z" />
    <glyph glyph-name="greaterequal" unicode="&#x2265;" horiz-adv-x="1201" 
d="M177 310v263l588 269l-588 268v263l887 -414v-236zM177 0v252h887v-252h-887z" />
    <glyph glyph-name="yen" unicode="&#xa5;" horiz-adv-x="1202" 
d="M896 874h224v-178h-321l-66 -136h387v-178h-387v-382h-265v382h-386v178h386l-65 136h-321v178h224l-267 491h344l261 -519l259 519h260z" />
    <glyph glyph-name="uni00B5" unicode="&#xb5;" horiz-adv-x="1201" 
d="M143 -341v1351h298v-528q0 -117 11.5 -173.5t51.5 -93t94 -36.5q79 0 121 60.5t42 242.5v528h297v-1010h-240l-6 152q-56 -173 -200 -173q-66 0 -117.5 43.5t-53.5 93.5v-457h-298z" />
    <glyph glyph-name="partialdiff" unicode="&#x2202;" horiz-adv-x="1012" 
d="M295 1120h-45q131 303 379 303q161 0 263.5 -127t102.5 -376q0 -358 -164.5 -654.5t-427.5 -296.5q-155 0 -246 91t-91 245q0 239 166.5 420.5t383.5 181.5q222 0 312 -190h4q10 144 10 186q0 175 -92.5 276t-253.5 101q-194 0 -301 -160zM911 629q-81 225 -284 225
q-178 0 -286 -190.5t-108 -399.5q0 -108 54 -172.5t143 -64.5q136 0 279.5 162.5t201.5 439.5z" />
    <glyph glyph-name="summation" unicode="&#x2211;" horiz-adv-x="1460" 
d="M1423 238q-32 -125 -54 -240t-34 -219q-63 11 -102.5 16.5t-54.5 5.5h-1031q-20 0 -59 -3t-59 -3l714 815l-710 930q70 -7 123 -10.5t90 -3.5h1018l12 -326h-41q-31 102 -52.5 141t-81.5 66q-30 13 -74.5 20t-104.5 7h-539l559 -734l-602 -694h760q127 0 177.5 52
t98.5 180h47z" />
    <glyph glyph-name="product" unicode="&#x220f;" horiz-adv-x="1686" 
d="M1645 -207h-629v47q120 0 159.5 41t39.5 125v1419h-734v-1419q0 -84 39.5 -125t159.5 -41v-47h-629v47q122 0 160.5 41t38.5 125v1282q0 101 -48.5 152t-146.5 51v47h1586v-47q-98 0 -146.5 -51t-48.5 -152v-1282q0 -84 38.5 -125t160.5 -41v-47z" />
    <glyph glyph-name="uniF006" unicode="&#xf006;" horiz-adv-x="1197" 
d="M156 0v793h-119v217h1124v-217h-119v-793h-298v793h-291v-793h-297z" />
    <glyph glyph-name="integral" unicode="&#x222b;" horiz-adv-x="561" 
d="M602 1760q0 -39 -29.5 -64t-75.5 -25q-37 0 -60 25t-44 25q-18 0 -27.5 -14.5t-9.5 -43.5q0 -34 19.5 -256t19.5 -551q0 -505 -30 -709.5t-79 -282.5q-26 -41 -67.5 -62t-85.5 -21q-49 0 -86 35t-37 85q0 38 25.5 65t64.5 27q34 0 65.5 -33t44.5 -33q25 0 39.5 44.5
t14.5 153.5q0 37 -6 197t-6 562q0 481 17 638.5t41 215.5q29 70 69 104t84 34q57 0 98 -32.5t41 -83.5z" />
    <glyph glyph-name="ordfeminine" unicode="&#xaa;" horiz-adv-x="728" 
d="M657 771h-202q-9 50 -10 71q-68 -83 -190 -83q-91 0 -149 47t-58 126q0 87 71.5 148t317.5 76v28q0 80 -82 80q-90 0 -97 -88l-193 18q30 199 311 199q101 0 165.5 -32.5t83 -73.5t18.5 -128v-270q0 -77 14 -118zM437 1055q-172 -19 -172 -102q0 -71 67 -71q45 0 75 36.5
t30 90.5v46z" />
    <glyph glyph-name="ordmasculine" unicode="&#xba;" horiz-adv-x="721" 
d="M357 1394q147 0 230.5 -90.5t83.5 -228.5q0 -135 -86.5 -225t-229.5 -90q-131 0 -218 86t-87 232q0 151 89.5 233.5t217.5 82.5zM362 1265q-53 0 -74 -42t-21 -143q0 -191 93 -191q95 0 95 184q0 115 -24.5 153.5t-68.5 38.5z" />
    <glyph glyph-name="uni2126" unicode="&#x2126;" horiz-adv-x="1573" 
d="M1506 0h-604l33 311q161 59 226 200t65 313q0 227 -107 373t-331 146t-331 -146t-107 -373q0 -172 65 -313t226 -200l33 -311h-604v332h30q16 -66 40 -95.5t96 -29.5h323l-4 57q-238 65 -341 221t-103 332q0 259 192 425.5t485 166.5t485 -166.5t192 -425.5
q0 -176 -103 -332t-341 -221l-4 -57h323q72 0 96 29.5t40 95.5h30v-332z" />
    <glyph glyph-name="ae" unicode="&#xe6;" horiz-adv-x="1639" 
d="M1574 455h-625q0 -158 54 -210.5t131 -52.5q147 0 178 156l262 -22q-92 -347 -446 -347q-242 0 -384 181q-143 -181 -374 -181q-142 0 -225.5 81.5t-83.5 200.5q0 149 111.5 245.5t508.5 124.5v78q0 127 -147 127q-153 0 -170 -152l-270 25q25 171 159 246.5t296 75.5
q176 0 296 -93q120 93 274 93q189 0 322 -129t133 -447zM950 631h348q-10 118 -50.5 161.5t-115.5 43.5q-158 0 -182 -205zM681 483q-314 -16 -314 -187q0 -52 34 -90.5t91 -38.5q78 0 133.5 63t55.5 158v95z" />
    <glyph glyph-name="oslash" unicode="&#xf8;" horiz-adv-x="1096" 
d="M974 1115l-109 -198q167 -150 167 -415q0 -223 -133 -373t-353 -150q-88 0 -191 32l-74 -116h-162l110 198q-164 153 -164 409q0 220 122 374.5t356 154.5q128 0 199 -36l71 120h161zM388 370l244 440q-22 26 -84 26q-83 0 -126.5 -63.5t-43.5 -223.5q0 -75 10 -179z
M460 204q40 -30 85 -30q171 0 171 313q0 88 -9 164z" />
    <glyph glyph-name="questiondown" unicode="&#xbf;" horiz-adv-x="1044" 
d="M390 1024h312v-302h-312v302zM675 632l1 -31q0 -160 -30 -213t-149 -142q-64 -47 -88.5 -87.5t-24.5 -100.5q0 -74 46.5 -116.5t113.5 -42.5q176 0 198 250l274 -38q-32 -228 -166 -343.5t-326 -115.5q-198 0 -332 114t-134 289q0 218 222 364q94 62 116.5 97.5
t22.5 115.5h256z" />
    <glyph glyph-name="exclamdown" unicode="&#xa1;" horiz-adv-x="602" 
d="M459 1024v-314h-316v314h316zM393 616l100 -957h-383l99 957h184z" />
    <glyph glyph-name="logicalnot" unicode="&#xac;" horiz-adv-x="1201" 
d="M763 0v301h-606v253h887v-554h-281z" />
    <glyph glyph-name="radical" unicode="&#x221a;" horiz-adv-x="1124" 
d="M1055 1868l-307 -1946l-498 1028l-197 -96l-33 68l299 147l404 -825l260 1634z" />
    <glyph glyph-name="florin" unicode="&#x192;" horiz-adv-x="1201" 
d="M384 1069h118q33 208 122 308t289 100q72 0 153 -13l-39 -226q-43 10 -83 10q-76 0 -106.5 -31t-46.5 -148h181l-40 -233h-181l-132 -750q-27 -152 -71.5 -225.5t-138.5 -115t-213 -41.5q-44 0 -134 9l41 232q58 -8 87 -8q55 0 83.5 17t40 40t23.5 92l124 750h-124z" />
    <glyph glyph-name="approxequal" unicode="&#x2248;" horiz-adv-x="1201" 
d="M254 698l-152 100q66 168 138.5 228t174.5 60q65 0 213 -53q129 -47 171 -47q89 0 144 102l156 -93q-118 -279 -326 -279q-54 0 -204 54q-133 48 -171 48q-88 0 -144 -120zM254 272l-152 100q67 169 139.5 229t172.5 60q67 0 214 -55q128 -47 172 -47q88 0 143 102
l156 -93q-118 -277 -327 -277q-52 0 -203 53q-134 47 -170 47q-89 0 -145 -119z" />
    <glyph glyph-name="uni2206" unicode="&#x2206;" horiz-adv-x="1253" 
d="M668 1409l577 -1409h-1233zM594 1059l-447 -959h844z" />
    <glyph glyph-name="guillemotleft" unicode="&#xab;" horiz-adv-x="698" 
d="M511 239l-172 287l172 292h105l-105 -292l105 -287h-105zM238 239l-170 287l170 292h101l-101 -292l101 -287h-101z" />
    <glyph glyph-name="guillemotright" unicode="&#xbb;" horiz-adv-x="698" 
d="M187 239h-105l105 287l-105 292h105l172 -292zM460 239h-101l101 287l-101 292h101l170 -292z" />
    <glyph glyph-name="ellipsis" unicode="&#x2026;" horiz-adv-x="1623" 
d="M425 0h-309v309h309v-309zM967 0h-310v309h310v-309zM1507 0h-308v309h308v-309z" />
    <glyph glyph-name="uni00A0" unicode="&#xa0;" horiz-adv-x="512" 
 />
    <glyph glyph-name="Agrave" unicode="&#xc0;" horiz-adv-x="1245" 
d="M808 1365l427 -1365h-344l-83 281h-442l-86 -281h-280l437 1365h371zM443 533h290l-145 479zM369 1836l414 -243l-50 -112l-440 187z" />
    <glyph glyph-name="Atilde" unicode="&#xc3;" horiz-adv-x="1245" 
d="M808 1365l427 -1365h-344l-83 281h-442l-86 -281h-280l437 1365h371zM443 533h290l-145 479zM958 1646q-98 -129 -222 -129q-60 0 -160 47q-49 22 -80 22q-62 0 -129 -65l-85 113q100 109 212 109q64 0 148 -40q60 -29 91 -29q69 0 141 83z" />
    <glyph glyph-name="Otilde" unicode="&#xd5;" horiz-adv-x="1309" 
d="M650 -21q-276 0 -427 207t-151 501q0 299 153 499t436 200q286 0 431.5 -213.5t145.5 -488.5q0 -297 -150 -501t-438 -204zM659 1125q-252 0 -252 -442q0 -443 252 -443q244 0 244 442q0 443 -244 443zM1010 1646q-98 -129 -222 -129q-60 0 -160 47q-49 22 -80 22
q-62 0 -129 -65l-85 113q100 109 212 109q64 0 148 -40q60 -29 91 -29q69 0 141 83z" />
    <glyph glyph-name="OE" unicode="&#x152;" horiz-adv-x="1904" 
d="M1850 1107h-645v-281h514v-255h-514v-301h645v-270h-972q-92 -21 -181 -21q-318 0 -471.5 212t-153.5 488q0 286 158 496.5t471 210.5q86 0 177 -21h972v-258zM878 1026q-62 99 -185 99q-152 0 -209 -124.5t-57 -317.5q0 -443 256 -443q129 0 195 105v681z" />
    <glyph glyph-name="oe" unicode="&#x153;" horiz-adv-x="1720" 
d="M1656 456h-645q0 -262 193 -262q155 0 180 155l272 -22q-32 -157 -152.5 -252.5t-304.5 -95.5q-178 0 -320 102q-140 -102 -321 -102q-224 0 -358.5 147.5t-134.5 381.5q0 241 139.5 382t356.5 141q180 0 318 -105q153 105 309 105q155 0 270.5 -79.5t156.5 -194.5
t41 -301zM1013 631h358q-15 210 -173 210q-165 0 -185 -210zM563 836q-94 0 -135.5 -78.5t-41.5 -250.5q0 -186 46 -259t133 -73q85 0 128.5 73.5t43.5 251.5q0 180 -41.5 258t-132.5 78z" />
    <glyph glyph-name="endash" unicode="&#x2013;" horiz-adv-x="1201" 
d="M162 628h877v-217h-877v217z" />
    <glyph glyph-name="emdash" unicode="&#x2014;" horiz-adv-x="1365" 
d="M-41 628h1447v-218h-1447v218z" />
    <glyph glyph-name="quotedblleft" unicode="&#x201c;" horiz-adv-x="897" 
d="M116 807v281l169 277h107l-137 -277h137v-281h-276zM511 807v281l164 277h106l-142 -277h142v-281h-270z" />
    <glyph glyph-name="quotedblright" unicode="&#x201d;" horiz-adv-x="897" 
d="M781 1365v-281l-170 -277h-106l137 277h-137v281h276zM386 1365v-281l-164 -277h-106l142 277h-142v281h270z" />
    <glyph glyph-name="quoteleft" unicode="&#x2018;" horiz-adv-x="527" 
d="M409 1365l-139 -271h139v-286h-291v250l180 307h111z" />
    <glyph glyph-name="quoteright" unicode="&#x2019;" horiz-adv-x="527" 
d="M118 808l139 272h-139v285h291v-249l-180 -308h-111z" />
    <glyph glyph-name="divide" unicode="&#xf7;" horiz-adv-x="1201" 
d="M736 1042q0 -56 -40.5 -96t-96.5 -40t-96 40t-40 96t40 96.5t97 40.5q56 0 96 -40t40 -97zM1107 799v-219h-1012v219h1012zM736 334q0 -57 -40.5 -97t-96.5 -40t-96 40t-40 97q0 56 40 96t97 40q56 0 96 -40t40 -96z" />
    <glyph glyph-name="lozenge" unicode="&#x25ca;" horiz-adv-x="1012" 
d="M962 763l-397 -763h-122l-397 763l397 763h122zM839 763l-335 652l-335 -652l335 -652z" />
    <glyph glyph-name="ydieresis" unicode="&#xff;" horiz-adv-x="912" 
d="M905 1010l-316 -969q-53 -162 -90.5 -234.5t-108 -116t-196.5 -43.5q-63 0 -143 12v229q79 -14 146 -14q88 0 118 33t45 93l-367 1010h315l194 -601l186 601h217zM628 1191q-54 0 -86 35t-32 80q0 46 33.5 81.5t85.5 35.5q48 0 84 -31t36 -85q0 -53 -35.5 -84.5
t-85.5 -31.5zM294 1191q-54 0 -86 35t-32 80q0 46 33 81.5t85 35.5q47 0 84 -30.5t37 -85.5q0 -53 -35.5 -84.5t-85.5 -31.5z" />
    <glyph glyph-name="Ydieresis" unicode="&#x178;" horiz-adv-x="1068" 
d="M1123 1365l-429 -790v-575h-320v575l-429 790h371l261 -518l259 518h287zM713 1511q-54 0 -86 35t-32 80q0 46 33.5 81.5t85.5 35.5q48 0 84 -31t36 -85q0 -53 -35.5 -84.5t-85.5 -31.5zM379 1511q-54 0 -86 35t-32 80q0 46 33 81.5t85 35.5q47 0 84 -30.5t37 -85.5
q0 -53 -35.5 -84.5t-85.5 -31.5z" />
    <glyph glyph-name="fraction" unicode="&#x2215;" horiz-adv-x="218" 
d="M-348 0l756 1365h159l-757 -1365h-158z" />
    <glyph glyph-name="Euro" unicode="&#x20ac;" horiz-adv-x="1200" 
d="M1186 426q-46 -232 -164.5 -339t-349.5 -107q-451 0 -547 483h-94v153h75l-2 66q0 38 2 53h-75v156h92q44 241 185.5 368t365.5 127q190 0 333.5 -114t174.5 -307l-336 -23q-9 78 -57.5 130t-120.5 52q-176 0 -215 -233h229v-156h-244v-55q0 -45 2 -64h242v-153h-223
q49 -223 217 -223q138 0 180 204z" />
    <glyph glyph-name="guilsinglleft" unicode="&#x2039;" horiz-adv-x="422" 
d="M238 239l-170 287l170 292h101l-101 -292l101 -287h-101z" />
    <glyph glyph-name="guilsinglright" unicode="&#x203a;" horiz-adv-x="422" 
d="M183 239h-101l101 287l-101 292h101l170 -292z" />
    <glyph glyph-name="fi" unicode="&#xfb01;" horiz-adv-x="1149" 
d="M434 778v-778h-290v778h-117v232h117q2 156 22.5 227.5t105.5 127t231 55.5q60 0 138 -11v-230q-64 5 -106 5q-61 0 -81 -32t-20 -104v-38h183v-232h-183zM1025 1010v-1010h-298v1010h298zM1025 1393v-298h-298v298h298z" />
    <glyph glyph-name="fl" unicode="&#xfb02;" horiz-adv-x="1149" 
d="M434 778v-778h-290v778h-117v232h117q2 156 22.5 227.5t105.5 127t231 55.5q60 0 138 -11v-230q-64 5 -106 5q-61 0 -81 -32t-20 -104v-38h183v-232h-183zM727 0v1365h298v-1365h-298z" />
    <glyph glyph-name="daggerdbl" unicode="&#x2021;" horiz-adv-x="1201" 
d="M107 774v234h354v357h280v-357h354v-234h-354v-499h354v-233h-354v-371h-280v371h-354v233h354v499h-354z" />
    <glyph glyph-name="periodcentered" unicode="&#x2219;" horiz-adv-x="309" 
d="M309 367h-309v303h309v-303z" />
    <glyph glyph-name="quotesinglbase" unicode="&#x201a;" horiz-adv-x="527" 
d="M118 -272l139 272h-139v285h291v-249l-180 -308h-111z" />
    <glyph glyph-name="quotedblbase" unicode="&#x201e;" horiz-adv-x="897" 
d="M781 281v-281l-170 -277h-106l137 277h-137v281h276zM386 281v-281l-164 -277h-106l142 277h-142v281h270z" />
    <glyph glyph-name="perthousand" unicode="&#x2030;" horiz-adv-x="2081" 
d="M339 673q-135 0 -208 101.5t-73 248.5q0 149 72.5 250.5t209.5 101.5q136 0 209.5 -101t73.5 -249q0 -151 -74 -251.5t-210 -100.5zM341 1252q-56 0 -78 -49.5t-22 -176.5q0 -125 22 -175.5t77 -50.5q54 0 77 50t23 169q0 133 -22 183t-77 50zM249 0l756 1365h152
l-757 -1365h-151zM1070 -10q-136 0 -209 101.5t-73 249.5q0 149 72.5 250t210.5 101q136 0 209.5 -101.5t73.5 -248.5q0 -151 -74 -251.5t-210 -100.5zM1072 569q-51 0 -76 -43.5t-25 -182.5q0 -126 23 -176t77 -50t77 50.5t23 167.5q0 133 -22 183.5t-77 50.5zM1738 -10
q-136 0 -209 101.5t-73 249.5q0 149 73 250t210 101q136 0 210 -101.5t74 -248.5q0 -151 -74 -251.5t-211 -100.5zM1740 569q-50 0 -75 -43t-25 -183q0 -124 22.5 -175t77.5 -51q54 0 77 50t23 170q0 144 -25.5 188t-74.5 44z" />
    <glyph glyph-name="Acircumflex" unicode="&#xc2;" horiz-adv-x="1245" 
d="M808 1365l427 -1365h-344l-83 281h-442l-86 -281h-280l437 1365h371zM443 533h290l-145 479zM987 1508l-203 -21l-164 138l-164 -138l-202 21l366 314z" />
    <glyph glyph-name="Ecircumflex" unicode="&#xca;" horiz-adv-x="1167" 
d="M1112 1105h-651v-280h512v-257h-512v-298h651v-270h-976v1365h976v-260zM987 1508l-203 -21l-164 138l-164 -138l-202 21l366 314z" />
    <glyph glyph-name="Aacute" unicode="&#xc1;" horiz-adv-x="1245" 
d="M808 1365l427 -1365h-344l-83 281h-442l-86 -281h-280l437 1365h371zM443 533h290l-145 479zM875 1836l76 -168l-440 -187l-50 112z" />
    <glyph glyph-name="Edieresis" unicode="&#xcb;" horiz-adv-x="1167" 
d="M1112 1105h-651v-280h512v-257h-512v-298h651v-270h-976v1365h976v-260zM789 1515q-54 0 -86 35t-32 80q0 46 33.5 81.5t85.5 35.5q48 0 84 -31t36 -85q0 -53 -35.5 -84.5t-85.5 -31.5zM455 1515q-54 0 -86 35t-32 80q0 46 33 81.5t85 35.5q47 0 84 -30.5t37 -85.5
q0 -53 -35.5 -84.5t-85.5 -31.5z" />
    <glyph glyph-name="Egrave" unicode="&#xc8;" horiz-adv-x="1167" 
d="M1112 1105h-651v-280h512v-257h-512v-298h651v-270h-976v1365h976v-260zM373 1836l414 -243l-50 -112l-440 187z" />
    <glyph glyph-name="Iacute" unicode="&#xcd;" horiz-adv-x="593" 
d="M456 1365v-1365h-319v1365h319zM543 1836l76 -168l-440 -187l-50 112z" />
    <glyph glyph-name="Icircumflex" unicode="&#xce;" horiz-adv-x="592" 
d="M456 1365v-1365h-319v1365h319zM659 1512l-203 -21l-164 138l-164 -138l-202 21l366 314z" />
    <glyph glyph-name="Idieresis" unicode="&#xcf;" horiz-adv-x="593" 
d="M453 1365v-1365h-319v1365h319zM469 1512q-54 0 -86 35t-32 80q0 46 33.5 81.5t85.5 35.5q48 0 84 -31t36 -85q0 -53 -35.5 -84.5t-85.5 -31.5zM135 1512q-54 0 -86 35t-32 80q0 46 33 81.5t85 35.5q47 0 84 -30.5t37 -85.5q0 -53 -35.5 -84.5t-85.5 -31.5z" />
    <glyph glyph-name="Igrave" unicode="&#xcc;" horiz-adv-x="593" 
d="M456 1365v-1365h-319v1365h319zM49 1836l414 -243l-50 -112l-440 187z" />
    <glyph glyph-name="Oacute" unicode="&#xd3;" horiz-adv-x="1309" 
d="M650 -21q-276 0 -427 207t-151 501q0 299 153 499t436 200q286 0 431.5 -213.5t145.5 -488.5q0 -297 -150 -501t-438 -204zM659 1125q-252 0 -252 -442q0 -443 252 -443q244 0 244 442q0 443 -244 443zM911 1836l76 -168l-440 -187l-50 112z" />
    <glyph glyph-name="Ocircumflex" unicode="&#xd4;" horiz-adv-x="1309" 
d="M650 -21q-276 0 -427 207t-151 501q0 299 153 499t436 200q286 0 431.5 -213.5t145.5 -488.5q0 -297 -150 -501t-438 -204zM659 1125q-252 0 -252 -442q0 -443 252 -443q244 0 244 442q0 443 -244 443zM1035 1508l-203 -21l-164 138l-164 -138l-202 21l366 314z" />
    <glyph glyph-name="Ograve" unicode="&#xd2;" horiz-adv-x="1309" 
d="M650 -21q-276 0 -427 207t-151 501q0 299 153 499t436 200q286 0 431.5 -213.5t145.5 -488.5q0 -297 -150 -501t-438 -204zM659 1125q-252 0 -252 -442q0 -443 252 -443q244 0 244 442q0 443 -244 443zM441 1832l414 -243l-50 -112l-440 187z" />
    <glyph glyph-name="Uacute" unicode="&#xda;" horiz-adv-x="1330" 
d="M1213 1365v-850q0 -206 -47 -306.5t-173.5 -165t-323.5 -64.5t-313.5 58t-174.5 165t-58 313v850h347v-850q0 -110 18.5 -162t74 -82.5t136.5 -30.5q90 0 146.5 30t75 79.5t18.5 165.5v850h274zM935 1836l76 -168l-440 -187l-50 112z" />
    <glyph glyph-name="Ucircumflex" unicode="&#xdb;" horiz-adv-x="1330" 
d="M1213 1365v-850q0 -206 -47 -306.5t-173.5 -165t-323.5 -64.5t-313.5 58t-174.5 165t-58 313v850h347v-850q0 -110 18.5 -162t74 -82.5t136.5 -30.5q90 0 146.5 30t75 79.5t18.5 165.5v850h274zM1051 1508l-203 -21l-164 138l-164 -138l-202 21l366 314z" />
    <glyph glyph-name="Ugrave" unicode="&#xd9;" horiz-adv-x="1330" 
d="M1213 1365v-850q0 -206 -47 -306.5t-173.5 -165t-323.5 -64.5t-313.5 58t-174.5 165t-58 313v850h347v-850q0 -110 18.5 -162t74 -82.5t136.5 -30.5q90 0 146.5 30t75 79.5t18.5 165.5v850h274zM433 1832l414 -243l-50 -112l-440 187z" />
    <glyph glyph-name="dotlessi" unicode="&#x131;" horiz-adv-x="543" 
d="M421 1010v-1010h-298v1010h298z" />
    <glyph glyph-name="circumflex" unicode="&#x2c6;" horiz-adv-x="1024" 
d="M879 1188l-203 -21l-164 138l-164 -138l-202 21l366 314z" />
    <glyph glyph-name="tilde" unicode="&#x2dc;" horiz-adv-x="1024" 
d="M850 1318q-98 -129 -222 -129q-60 0 -160 47q-49 22 -80 22q-62 0 -129 -65l-85 113q100 109 212 109q64 0 148 -40q60 -29 91 -29q69 0 141 83z" />
    <glyph glyph-name="macron" unicode="&#x2c9;" horiz-adv-x="1024" 
d="M819 1372v-143h-614v143h614z" />
    <glyph glyph-name="breve" unicode="&#x2d8;" horiz-adv-x="1024" 
d="M193 1468h157q16 -131 160 -131q148 0 163 131h157q-17 -135 -102.5 -211t-220.5 -76q-127 0 -214.5 70.5t-99.5 216.5z" />
    <glyph glyph-name="dotaccent" unicode="&#x2d9;" horiz-adv-x="1024" 
d="M510 1191q-54 0 -86 35t-32 80q0 46 33 81.5t85 35.5q47 0 84 -30.5t37 -85.5q0 -53 -35.5 -84.5t-85.5 -31.5z" />
    <glyph glyph-name="ring" unicode="&#x2da;" horiz-adv-x="1024" 
d="M509 1137q-82 0 -135.5 58.5t-53.5 129.5q0 72 53.5 130t136.5 58t139 -55t56 -131q0 -77 -56.5 -133.5t-139.5 -56.5zM512 1249q33 0 57 22.5t24 53.5t-23.5 53.5t-56.5 22.5q-35 0 -58 -23t-23 -53q0 -31 23.5 -53.5t56.5 -22.5z" />
    <glyph glyph-name="cedilla" unicode="&#xb8;" horiz-adv-x="1024" 
d="M552 0l-35 -100q19 3 29 3q76 0 125 -44t49 -107q0 -75 -55 -120t-148 -45q-104 0 -208 59l33 86q82 -46 136 -46q72 0 72 65q0 35 -32 54t-76 19q-18 0 -53 -4l64 180h99z" />
    <glyph glyph-name="hungarumlaut" unicode="&#x2dd;" horiz-adv-x="1024" 
d="M576 1516l97 -141l-352 -214l-63 98zM932 1516l96 -141l-351 -214l-64 98z" />
    <glyph glyph-name="ogonek" unicode="&#x2db;" horiz-adv-x="1024" 
d="M924 0q-137 -79 -137 -159q0 -42 30 -67.5t82 -25.5q24 0 79 19l20 -82q-73 -36 -172 -36t-157 43.5t-58 114.5q0 120 176 193h137z" />
    <glyph glyph-name="caron" unicode="&#x2c7;" horiz-adv-x="1024" 
d="M146 1468l202 20l165 -137l163 137l203 -20l-366 -314z" />
    <glyph glyph-name="Lslash" unicode="&#x141;" horiz-adv-x="1031" 
d="M14 565l123 122v678h323v-465l274 257v-245l-274 -258v-384h544v-270h-867v441l-123 -122v246z" />
    <glyph glyph-name="lslash" unicode="&#x142;" horiz-adv-x="571" 
d="M557 825l-122 -117v-708h-298v521l-123 -116v191l123 116v653h298v-466l122 117v-191z" />
    <glyph glyph-name="Scaron" unicode="&#x160;" horiz-adv-x="1189" 
d="M1080 1065l-272 -91q-55 162 -233 162q-190 0 -190 -123q0 -49 35.5 -83t160.5 -59q209 -42 306 -85t163.5 -138.5t66.5 -213.5q0 -185 -142.5 -320t-422.5 -135q-210 0 -357.5 95.5t-194.5 283.5l296 67q50 -191 278 -191q110 0 164 42.5t54 101.5q0 60 -49 93t-189 62
q-261 54 -372 147.5t-111 273.5q0 182 132.5 307t359.5 125q402 0 517 -321zM222 1792l202 20l165 -137l163 137l203 -20l-366 -314z" />
    <glyph glyph-name="scaron" unicode="&#x161;" horiz-adv-x="969" 
d="M879 766l-217 -58q-38 137 -197 137q-150 0 -150 -91q0 -36 27.5 -57.5t143.5 -36.5q173 -23 256 -53t131.5 -101t48.5 -175q0 -156 -118.5 -254t-331.5 -98q-386 0 -461 299l251 37q31 -136 224 -136q74 0 125 26.5t51 71.5q0 70 -113 83q-306 38 -402.5 117.5
t-96.5 221.5q0 144 112 238t314 94q160 0 256 -63t147 -202zM114 1468l202 20l165 -137l163 137l203 -20l-366 -314z" />
    <glyph glyph-name="Zcaron" unicode="&#x17d;" horiz-adv-x="1184" 
d="M1121 1130l-690 -869h712v-261h-1102v232l688 875h-642v258h1034v-235zM238 1784l202 20l165 -137l163 137l203 -20l-366 -314z" />
    <glyph glyph-name="zcaron" unicode="&#x17e;" horiz-adv-x="877" 
d="M816 1010v-186l-450 -607h470v-217h-795v217l445 590h-408v203h738zM86 1468l202 20l165 -137l163 137l203 -20l-366 -314z" />
    <glyph glyph-name="brokenbar" unicode="&#xa6;" horiz-adv-x="1024" 
d="M371 1365h283v-713h-283v713zM371 314h283v-655h-283v655z" />
    <glyph glyph-name="Eth" unicode="&#xd0;" horiz-adv-x="1328" 
d="M137 1365h416q255 0 380 -70t224 -222.5t99 -386.5q0 -292 -172 -489t-478 -197h-469v598h-123v205h123v562zM451 803h238v-205h-238v-341h131q176 0 260.5 131t84.5 306q0 157 -79.5 288.5t-262.5 131.5h-134v-311z" />
    <glyph glyph-name="eth" unicode="&#xf0;" horiz-adv-x="1096" 
d="M328 1174l161 84q-53 35 -176 75l48 109q157 -32 283 -109l185 91l75 -88l-162 -82q110 -99 200.5 -289t90.5 -402q0 -294 -135.5 -439t-344.5 -145q-232 0 -360 152t-128 362q0 214 131.5 364.5t306.5 150.5q119 0 196 -107q-34 182 -126 271l-181 -90zM554 813
q-174 0 -174 -297q0 -213 49.5 -277t124.5 -64q70 0 116 62.5t46 265.5q0 310 -162 310z" />
    <glyph glyph-name="Yacute" unicode="&#xdd;" horiz-adv-x="1068" 
d="M1123 1365l-429 -790v-575h-320v575l-429 790h371l261 -518l259 518h287zM799 1832l76 -168l-440 -187l-50 112z" />
    <glyph glyph-name="yacute" unicode="&#xfd;" horiz-adv-x="912" 
d="M905 1010l-316 -969q-53 -162 -90.5 -234.5t-108 -116t-196.5 -43.5q-63 0 -143 12v229q79 -14 146 -14q88 0 118 33t45 93l-367 1010h315l194 -601l186 601h217zM728 1516l76 -168l-440 -187l-50 112z" />
    <glyph glyph-name="Thorn" unicode="&#xde;" horiz-adv-x="1249" 
d="M136 1365h325v-184h213q180 0 275.5 -39t170.5 -138t75 -242q0 -142 -64 -246.5t-162.5 -149t-282.5 -44.5h-225v-322h-325v1365zM450 571h208q120 0 167.5 55.5t47.5 125.5t-46 125.5t-170 55.5h-207v-362z" />
    <glyph glyph-name="thorn" unicode="&#xfe;" horiz-adv-x="1105" 
d="M123 -341v1706h289v-482q86 148 254 148q169 0 269.5 -137t100.5 -377q0 -267 -105.5 -402.5t-274.5 -135.5q-171 0 -244 133v-453h-289zM412 442q0 -107 13 -148t55 -73.5t91 -32.5q61 0 109 62.5t48 275.5q0 299 -158 299q-60 0 -109 -53t-49 -180v-150z" />
    <glyph glyph-name="minus" unicode="&#x2212;" horiz-adv-x="1201" 
d="M1107 799v-219h-1012v219h1012z" />
    <glyph glyph-name="multiply" unicode="&#xd7;" horiz-adv-x="1201" 
d="M882 1125l155 -155l-282 -281l291 -290l-153 -154l-291 291l-281 -281l-154 154l280 281l-291 292l153 153l292 -291z" />
    <glyph glyph-name="onesuperior" unicode="&#xb9;" horiz-adv-x="792" 
d="M37 1031v181q231 62 299 166h158v-671h215v-161h-667v161h238v442q-143 -80 -243 -118z" />
    <glyph glyph-name="twosuperior" unicode="&#xb2;" horiz-adv-x="792" 
d="M731 721l-16 -175h-669v167q35 25 109 73q180 118 260.5 193t80.5 135q0 45 -31 73t-83 28q-128 0 -143 -155l-194 39q62 279 346 279q158 0 242.5 -76t84.5 -185q0 -112 -90.5 -198t-296.5 -198h400z" />
    <glyph glyph-name="threesuperior" unicode="&#xb3;" horiz-adv-x="792" 
d="M259 1046h99q128 0 128 89q0 35 -29.5 63t-81.5 28q-103 0 -129 -105l-194 29q23 100 111.5 164t217.5 64q135 0 227 -60t92 -164q0 -128 -133 -178q159 -46 159 -193q0 -109 -91.5 -179t-253.5 -70q-156 0 -246.5 73.5t-108.5 184.5l199 26q25 -126 151 -126
q58 0 93.5 27.5t35.5 74.5q0 51 -33.5 74.5t-125.5 23.5h-87v154z" />
    <glyph glyph-name="onehalf" unicode="&#xbd;" horiz-adv-x="1802" 
d="M25 1031v181q231 62 299 166h158v-671h215v-161h-667v161h238v442q-143 -80 -243 -118zM444 0l756 1365h159l-757 -1365h-158zM1779 173l-16 -175h-669v167q35 25 109 73q180 118 260.5 193t80.5 135q0 45 -31 73t-83 28q-128 0 -143 -155l-194 39q62 279 346 279
q158 0 242.5 -76t84.5 -185q0 -112 -90.5 -198t-296.5 -198h400z" />
    <glyph glyph-name="onequarter" unicode="&#xbc;" horiz-adv-x="1802" 
d="M21 1031v181q231 62 299 166h158v-671h215v-161h-667v161h238v442q-143 -80 -243 -118zM448 0l756 1365h159l-757 -1365h-158zM1684 830v-491h123v-154h-123v-187h-208v187h-393v150l356 495h245zM1248 330h235v337z" />
    <glyph glyph-name="threequarters" unicode="&#xbe;" horiz-adv-x="1802" 
d="M259 1046h99q128 0 128 89q0 35 -29.5 63t-81.5 28q-103 0 -129 -105l-194 29q23 100 111.5 164t217.5 64q135 0 227 -60t92 -164q0 -128 -133 -178q159 -46 159 -193q0 -109 -91.5 -179t-253.5 -70q-156 0 -246.5 73.5t-108.5 184.5l199 26q25 -126 151 -126
q58 0 93.5 27.5t35.5 74.5q0 51 -33.5 74.5t-125.5 23.5h-87v154zM484 0l756 1365h159l-757 -1365h-158zM1640 830v-491h123v-154h-123v-187h-208v187h-393v150l356 495h245zM1204 330h235v337z" />
    <glyph glyph-name="franc" unicode="&#x20a3;" horiz-adv-x="1135" 
d="M468 378h231v-205h-231v-173h-331v173h-126v205h126v987h970v-270h-639v-306h506v-255h-506v-156z" />
    <glyph glyph-name="Gbreve" unicode="&#x11e;" horiz-adv-x="1315" 
d="M1200 730v-730h-146q-16 77 -46 157q-146 -178 -372 -178q-267 0 -415.5 191t-148.5 494q0 326 158.5 524t430.5 198q228 0 368 -128t171 -341l-304 -40q-37 248 -235 248q-130 0 -196.5 -117.5t-66.5 -335.5q0 -210 72 -321t205 -111q86 0 153.5 56t67.5 179h-257v255
h561zM365 1776h157q16 -131 160 -131q148 0 163 131h157q-17 -135 -102.5 -211t-220.5 -76q-127 0 -214.5 70.5t-99.5 216.5z" />
    <glyph glyph-name="gbreve" unicode="&#x11f;" horiz-adv-x="1133" 
d="M1132 987q-47 10 -79 10q-99 0 -116 -88q81 -85 81 -192q0 -143 -119.5 -228t-344.5 -85q-80 0 -156 15q-51 -30 -51 -77q0 -52 43 -69t207 -25q233 -12 321 -29t148 -82t60 -162q0 -139 -128.5 -235t-455.5 -96q-307 0 -414 66.5t-107 168.5q0 135 173 182
q-128 64 -128 180q0 145 202 226q-179 74 -179 247q0 141 123.5 229t341.5 88q138 0 267 -44q9 86 50.5 141.5t176.5 55.5q44 0 84 -8v-189zM552 870q-77 0 -120.5 -41.5t-43.5 -109.5q0 -154 165 -154q80 0 125.5 45t45.5 109q0 60 -43 105.5t-129 45.5zM353 7
q-18 0 -45.5 -24t-27.5 -58q0 -68 87 -85t204 -17q153 0 214.5 23t61.5 74q0 39 -51.5 60t-274.5 21l-60 -1q-55 0 -74 3q-21 4 -34 4zM249 1468h157q16 -131 160 -131q148 0 163 131h157q-17 -135 -102.5 -211t-220.5 -76q-127 0 -214.5 70.5t-99.5 216.5z" />
    <glyph glyph-name="Idotaccent" unicode="&#x130;" horiz-adv-x="593" 
d="M456 1365v-1365h-319v1365h319zM294 1511q-54 0 -86 35t-32 80q0 46 33 81.5t85 35.5q47 0 84 -30.5t37 -85.5q0 -53 -35.5 -84.5t-85.5 -31.5z" />
    <glyph glyph-name="Scedilla" unicode="&#x15e;" horiz-adv-x="1189" 
d="M565 -21l-27 -82q32 5 55 5q78 0 133 -47.5t55 -119.5q0 -84 -66.5 -132t-155.5 -48q-133 0 -251 68l35 85q102 -48 159 -48q45 0 70.5 22t25.5 54q0 38 -33 60t-84 22q-25 0 -79 -9l53 177q-145 11 -277 100.5t-178 271.5l296 67q50 -191 278 -191q110 0 164 42.5
t54 101.5q0 60 -49 93t-189 62q-261 54 -372 147.5t-111 273.5q0 182 132.5 307t359.5 125q402 0 517 -321l-272 -91q-55 162 -233 162q-190 0 -190 -123q0 -49 35.5 -83t160.5 -59q209 -42 306 -85t163.5 -138.5t66.5 -213.5q0 -191 -145.5 -323t-406.5 -132z" />
    <glyph glyph-name="scedilla" unicode="&#x15f;" horiz-adv-x="969" 
d="M476 -21l-28 -79q19 3 29 3q76 0 125.5 -44t49.5 -107q0 -75 -55.5 -120t-148.5 -45q-104 0 -208 59l33 86q83 -46 136 -46q72 0 72 65q0 35 -31.5 54t-75.5 19q-19 0 -53 -4l58 164q-303 36 -368 294l251 37q31 -136 224 -136q74 0 125 26.5t51 71.5q0 70 -113 83
q-306 38 -402.5 117.5t-96.5 221.5q0 144 112 238t314 94q160 0 256 -63t147 -202l-217 -58q-38 137 -197 137q-150 0 -150 -91q0 -36 27.5 -57.5t143.5 -36.5q173 -23 256 -53t131.5 -101t48.5 -175q0 -147 -109 -246.5t-337 -105.5z" />
    <glyph glyph-name="Cacute" unicode="&#x106;" horiz-adv-x="1285" 
d="M1238 857l-335 -21q-7 289 -225 289q-250 0 -250 -445q0 -257 68 -348.5t190 -91.5q198 0 242 258l310 -19q-30 -245 -182.5 -372.5t-373.5 -127.5q-271 0 -440.5 187t-169.5 517q0 309 164 506t448 197q492 0 554 -529zM943 1832l76 -168l-440 -187l-50 112z" />
    <glyph glyph-name="cacute" unicode="&#x107;" horiz-adv-x="1048" 
d="M1011 379q-17 -179 -141.5 -289.5t-321.5 -110.5q-214 0 -348.5 141.5t-134.5 378.5t137.5 384.5t367.5 147.5q185 0 306.5 -111t134.5 -278l-278 -16q-14 182 -158 182q-177 0 -177 -290q0 -193 49.5 -245t120.5 -52q138 0 165 175zM816 1516l76 -168l-440 -187l-50 112
z" />
    <glyph glyph-name="Ccaron" unicode="&#x10c;" horiz-adv-x="1285" 
d="M1238 857l-335 -21q-7 289 -225 289q-250 0 -250 -445q0 -257 68 -348.5t190 -91.5q198 0 242 258l310 -19q-30 -245 -182.5 -372.5t-373.5 -127.5q-271 0 -440.5 187t-169.5 517q0 309 164 506t448 197q492 0 554 -529zM334 1788l202 20l165 -137l163 137l203 -20
l-366 -314z" />
    <glyph glyph-name="ccaron" unicode="&#x10d;" horiz-adv-x="1048" 
d="M1011 379q-17 -179 -141.5 -289.5t-321.5 -110.5q-214 0 -348.5 141.5t-134.5 378.5t137.5 384.5t367.5 147.5q185 0 306.5 -111t134.5 -278l-278 -16q-14 182 -158 182q-177 0 -177 -290q0 -193 49.5 -245t120.5 -52q138 0 165 175zM199 1468l202 20l165 -137l163 137
l203 -20l-366 -314z" />
    <glyph glyph-name="dcroat" unicode="&#x111;" horiz-adv-x="1105" 
d="M981 0h-275v158q-102 -179 -278 -179q-168 0 -264 136.5t-96 377.5q0 264 98.5 397.5t274.5 133.5q177 0 251 -133v219h-253v135h253v120h289v-120h116v-135h-116v-1110zM692 587q0 238 -144 238q-172 0 -172 -336q0 -299 161 -299q62 0 108.5 54t46.5 154v189z" />
    <glyph glyph-name="uni00AD" unicode="&#xad;" horiz-adv-x="527" 
d="M24 628h478v-217h-478v217z" />
    <glyph glyph-name="uni00AF" unicode="&#xaf;" horiz-adv-x="1024" 
d="M0 1830h1024v-239h-1024v239z" />
    <glyph glyph-name="uni00B7" unicode="&#xb7;" horiz-adv-x="309" 
d="M309 367h-309v303h309v-303z" />
    <glyph glyph-name="Amacron" unicode="&#x100;" horiz-adv-x="1245" 
d="M808 1365l427 -1365h-344l-83 281h-442l-86 -281h-280l437 1365h371zM443 533h290l-145 479zM923 1692v-143h-614v143h614z" />
    <glyph glyph-name="amacron" unicode="&#x101;" horiz-adv-x="1109" 
d="M1005 0h-289q-14 60 -14 158q-76 -108 -151.5 -143.5t-171.5 -35.5q-142 0 -229.5 77t-87.5 207q0 95 51 175t164 125.5t412 67.5v58q0 147 -147 147q-157 0 -175 -147l-275 26q27 172 163 244t308 72q103 0 194 -24t142 -72t69 -101.5t18 -186.5v-458q0 -132 19 -189z
M689 484q-313 -31 -313 -189q0 -53 33 -91.5t94 -38.5q79 0 132.5 65.5t53.5 161.5v92zM868 1372v-143h-614v143h614z" />
    <glyph glyph-name="Abreve" unicode="&#x102;" horiz-adv-x="1245" 
d="M808 1365l427 -1365h-344l-83 281h-442l-86 -281h-280l437 1365h371zM443 533h290l-145 479zM301 1776h157q16 -131 160 -131q148 0 163 131h157q-17 -135 -102.5 -211t-220.5 -76q-127 0 -214.5 70.5t-99.5 216.5z" />
    <glyph glyph-name="abreve" unicode="&#x103;" horiz-adv-x="1109" 
d="M1005 0h-289q-14 60 -14 158q-76 -108 -151.5 -143.5t-171.5 -35.5q-142 0 -229.5 77t-87.5 207q0 95 51 175t164 125.5t412 67.5v58q0 147 -147 147q-157 0 -175 -147l-275 26q27 172 163 244t308 72q103 0 194 -24t142 -72t69 -101.5t18 -186.5v-458q0 -132 19 -189z
M689 484q-313 -31 -313 -189q0 -53 33 -91.5t94 -38.5q79 0 132.5 65.5t53.5 161.5v92zM249 1468h157q16 -131 160 -131q148 0 163 131h157q-17 -135 -102.5 -211t-220.5 -76q-127 0 -214.5 70.5t-99.5 216.5z" />
    <glyph glyph-name="Aogonek" unicode="&#x104;" horiz-adv-x="1245" 
d="M1235 0q-140 -69 -140 -169q0 -92 119 -92q40 0 88 19l20 -90q-84 -39 -178 -39q-111 0 -174.5 46t-63.5 125q0 130 184 200h-199l-83 281h-442l-86 -281h-280l437 1365h371zM443 533h290l-145 479z" />
    <glyph glyph-name="aogonek" unicode="&#x105;" horiz-adv-x="1109" 
d="M366 689l-275 26q27 172 163 244t308 72q103 0 194 -24t142 -72t69 -101.5t18 -186.5v-458q0 -130 19 -189q-137 -79 -137 -159q0 -42 30 -67.5t82 -25.5q24 0 79 19l21 -82q-73 -36 -173 -36q-99 0 -157 43.5t-58 114.5q0 120 176 193h-152q-14 60 -14 158
q-76 -108 -151.5 -143.5t-171.5 -35.5q-142 0 -229.5 77t-87.5 207q0 95 51 175t164 125.5t412 67.5v58q0 147 -147 147q-157 0 -175 -147zM688 484q-313 -31 -313 -189q0 -53 33 -91.5t94 -38.5q79 0 132.5 65.5t53.5 161.5v92z" />
    <glyph glyph-name="Ccircumflex" unicode="&#x108;" horiz-adv-x="1285" 
d="M1238 857l-335 -21q-7 289 -225 289q-250 0 -250 -445q0 -257 68 -348.5t190 -91.5q198 0 242 258l310 -19q-30 -245 -182.5 -372.5t-373.5 -127.5q-271 0 -440.5 187t-169.5 517q0 309 164 506t448 197q492 0 554 -529zM1059 1508l-203 -21l-164 138l-164 -138l-202 21
l366 314z" />
    <glyph glyph-name="ccircumflex" unicode="&#x109;" horiz-adv-x="1048" 
d="M1011 379q-17 -179 -141.5 -289.5t-321.5 -110.5q-214 0 -348.5 141.5t-134.5 378.5t137.5 384.5t367.5 147.5q185 0 306.5 -111t134.5 -278l-278 -16q-14 182 -158 182q-177 0 -177 -290q0 -193 49.5 -245t120.5 -52q138 0 165 175zM932 1188l-203 -21l-164 138
l-164 -138l-202 21l366 314z" />
    <glyph glyph-name="Cdotaccent" unicode="&#x10a;" horiz-adv-x="1285" 
d="M1238 857l-335 -21q-7 289 -225 289q-250 0 -250 -445q0 -257 68 -348.5t190 -91.5q198 0 242 258l310 -19q-30 -245 -182.5 -372.5t-373.5 -127.5q-271 0 -440.5 187t-169.5 517q0 309 164 506t448 197q492 0 554 -529zM694 1511q-54 0 -86 35t-32 80q0 46 33 81.5
t85 35.5q47 0 84 -30.5t37 -85.5q0 -53 -35.5 -84.5t-85.5 -31.5z" />
    <glyph glyph-name="cdotaccent" unicode="&#x10b;" horiz-adv-x="1048" 
d="M1011 379q-17 -179 -141.5 -289.5t-321.5 -110.5q-214 0 -348.5 141.5t-134.5 378.5t137.5 384.5t367.5 147.5q185 0 306.5 -111t134.5 -278l-278 -16q-14 182 -158 182q-177 0 -177 -290q0 -193 49.5 -245t120.5 -52q138 0 165 175zM564 1191q-54 0 -86 35t-32 80
q0 46 33 81.5t85 35.5q47 0 84 -30.5t37 -85.5q0 -53 -35.5 -84.5t-85.5 -31.5z" />
    <glyph glyph-name="Dcaron" unicode="&#x10e;" horiz-adv-x="1328" 
d="M137 1365h417q255 0 380 -70.5t224 -223t99 -385.5q0 -293 -173 -489.5t-477 -196.5h-470v1365zM451 1114v-857h132q175 0 260 130.5t85 306.5q0 124 -48.5 229.5t-120.5 148t-173 42.5h-135zM242 1792l202 20l165 -137l163 137l203 -20l-366 -314z" />
    <glyph glyph-name="dcaron" unicode="&#x10f;" horiz-adv-x="1337" 
d="M981 1365v-1365h-275v158q-102 -179 -278 -179q-167 0 -263.5 136.5t-96.5 378.5q0 252 96.5 394.5t279.5 142.5q161 0 248 -127v461h289zM692 587q0 238 -144 238q-172 0 -172 -336q0 -299 161 -299q62 0 108.5 54t46.5 154v189zM1351 1365l-183 -403h-105l55 403h233z
" />
    <glyph glyph-name="Dcroat" unicode="&#x110;" horiz-adv-x="1328" 
d="M137 1365h416q255 0 380 -70t224 -222.5t99 -386.5q0 -292 -172 -489t-478 -197h-469v598h-123v205h123v562zM451 803h238v-205h-238v-341h131q176 0 260.5 131t84.5 306q0 157 -79.5 288.5t-262.5 131.5h-134v-311z" />
    <glyph glyph-name="Emacron" unicode="&#x112;" horiz-adv-x="1167" 
d="M1112 1105h-651v-280h512v-257h-512v-298h651v-270h-976v1365h976v-260zM927 1692v-143h-614v143h614z" />
    <glyph glyph-name="emacron" unicode="&#x113;" horiz-adv-x="1095" 
d="M1030 455h-650q-1 -27 -1 -47q0 -108 57.5 -163t137.5 -55q149 0 179 159l270 -20q-113 -350 -459 -350q-151 0 -256.5 60.5t-174 176.5t-68.5 278q0 241 137.5 389t353.5 148q195 0 334.5 -137.5t139.5 -438.5zM379 628h359q-14 208 -171 208q-168 0 -188 -208z
M882 1372v-143h-614v143h614z" />
    <glyph glyph-name="Ebreve" unicode="&#x114;" horiz-adv-x="1167" 
d="M1112 1105h-651v-280h512v-257h-512v-298h651v-270h-976v1365h976v-260zM305 1776h157q16 -131 160 -131q148 0 163 131h157q-17 -135 -102.5 -211t-220.5 -76q-127 0 -214.5 70.5t-99.5 216.5z" />
    <glyph glyph-name="ebreve" unicode="&#x115;" horiz-adv-x="1095" 
d="M1030 455h-650q-1 -27 -1 -47q0 -108 57.5 -163t137.5 -55q149 0 179 159l270 -20q-113 -350 -459 -350q-151 0 -256.5 60.5t-174 176.5t-68.5 278q0 241 137.5 389t353.5 148q195 0 334.5 -137.5t139.5 -438.5zM379 628h359q-14 208 -171 208q-168 0 -188 -208z
M260 1468h157q16 -131 160 -131q148 0 163 131h157q-17 -135 -102.5 -211t-220.5 -76q-127 0 -214.5 70.5t-99.5 216.5z" />
    <glyph glyph-name="Edotaccent" unicode="&#x116;" horiz-adv-x="1167" 
d="M1112 1105h-651v-280h512v-257h-512v-298h651v-270h-976v1365h976v-260zM622 1511q-54 0 -86 35t-32 80q0 46 33 81.5t85 35.5q47 0 84 -30.5t37 -85.5q0 -53 -35.5 -84.5t-85.5 -31.5z" />
    <glyph glyph-name="edotaccent" unicode="&#x117;" horiz-adv-x="1095" 
d="M1030 455h-650q-1 -27 -1 -47q0 -108 57.5 -163t137.5 -55q149 0 179 159l270 -20q-113 -350 -459 -350q-151 0 -256.5 60.5t-174 176.5t-68.5 278q0 241 137.5 389t353.5 148q195 0 334.5 -137.5t139.5 -438.5zM379 628h359q-14 208 -171 208q-168 0 -188 -208z
M566 1191q-54 0 -86 35t-32 80q0 46 33 81.5t85 35.5q47 0 84 -30.5t37 -85.5q0 -53 -35.5 -84.5t-85.5 -31.5z" />
    <glyph glyph-name="Eogonek" unicode="&#x118;" horiz-adv-x="1167" 
d="M1112 0q-140 -69 -140 -169q0 -92 120 -92q40 0 87 19l21 -90q-85 -39 -178 -39q-111 0 -174.5 46t-63.5 125q0 130 184 200h-832v1365h976v-260h-651v-280h512v-257h-512v-298h651v-270z" />
    <glyph glyph-name="eogonek" unicode="&#x119;" horiz-adv-x="1095" 
d="M912 -226l20 -82q-71 -36 -173 -36q-101 0 -157.5 44t-56.5 114q0 48 25 85.5t119 92.5q-67 -13 -125 -13q-230 0 -364.5 146.5t-134.5 368.5q0 241 137.5 389t353.5 148q195 0 334.5 -137.5t139.5 -438.5h-650q-1 -27 -1 -47q0 -108 57.5 -163t137.5 -55q149 0 179 159
l270 -20q-42 -148 -168 -266q-134 -124 -134 -215q0 -93 113 -93q22 0 78 19zM379 628h359q-14 208 -171 208q-168 0 -188 -208z" />
    <glyph glyph-name="Ecaron" unicode="&#x11a;" horiz-adv-x="1167" 
d="M1112 1105h-651v-280h512v-257h-512v-298h651v-270h-976v1365h976v-260zM258 1788l202 20l165 -137l163 137l203 -20l-366 -314z" />
    <glyph glyph-name="ecaron" unicode="&#x11b;" horiz-adv-x="1095" 
d="M1030 455h-650q-1 -27 -1 -47q0 -108 57.5 -163t137.5 -55q149 0 179 159l270 -20q-113 -350 -459 -350q-151 0 -256.5 60.5t-174 176.5t-68.5 278q0 241 137.5 389t353.5 148q195 0 334.5 -137.5t139.5 -438.5zM379 628h359q-14 208 -171 208q-168 0 -188 -208z
M208 1468l202 20l165 -137l163 137l203 -20l-366 -314z" />
    <glyph glyph-name="Gcircumflex" unicode="&#x11c;" horiz-adv-x="1315" 
d="M1200 730v-730h-146q-16 77 -46 157q-146 -178 -372 -178q-267 0 -415.5 191t-148.5 494q0 326 158.5 524t430.5 198q228 0 368 -128t171 -341l-304 -40q-37 248 -235 248q-130 0 -196.5 -117.5t-66.5 -335.5q0 -210 72 -321t205 -111q86 0 153.5 56t67.5 179h-257v255
h561zM1051 1508l-203 -21l-164 138l-164 -138l-202 21l366 314z" />
    <glyph glyph-name="gcircumflex" unicode="&#x11d;" horiz-adv-x="1133" 
d="M1132 987q-47 10 -79 10q-99 0 -116 -88q81 -85 81 -192q0 -143 -119.5 -228t-344.5 -85q-80 0 -156 15q-51 -30 -51 -77q0 -52 43 -69t207 -25q233 -12 321 -29t148 -82t60 -162q0 -139 -128.5 -235t-455.5 -96q-307 0 -414 66.5t-107 168.5q0 135 173 182
q-128 64 -128 180q0 145 202 226q-179 74 -179 247q0 141 123.5 229t341.5 88q138 0 267 -44q9 86 50.5 141.5t176.5 55.5q44 0 84 -8v-189zM552 870q-77 0 -120.5 -41.5t-43.5 -109.5q0 -154 165 -154q80 0 125.5 45t45.5 109q0 60 -43 105.5t-129 45.5zM353 7
q-18 0 -45.5 -24t-27.5 -58q0 -68 87 -85t204 -17q153 0 214.5 23t61.5 74q0 39 -51.5 60t-274.5 21l-60 -1q-55 0 -74 3q-21 4 -34 4zM903 1208l-203 -21l-164 138l-164 -138l-202 21l366 314z" />
    <glyph glyph-name="Gdotaccent" unicode="&#x120;" horiz-adv-x="1315" 
d="M1200 730v-730h-146q-16 77 -46 157q-146 -178 -372 -178q-267 0 -415.5 191t-148.5 494q0 326 158.5 524t430.5 198q228 0 368 -128t171 -341l-304 -40q-37 248 -235 248q-130 0 -196.5 -117.5t-66.5 -335.5q0 -210 72 -321t205 -111q86 0 153.5 56t67.5 179h-257v255
h561zM674 1511q-54 0 -86 35t-32 80q0 46 33 81.5t85 35.5q47 0 84 -30.5t37 -85.5q0 -53 -35.5 -84.5t-85.5 -31.5z" />
    <glyph glyph-name="gdotaccent" unicode="&#x121;" horiz-adv-x="1133" 
d="M1132 987q-47 10 -79 10q-99 0 -116 -88q81 -85 81 -192q0 -143 -119.5 -228t-344.5 -85q-80 0 -156 15q-51 -30 -51 -77q0 -52 43 -69t207 -25q233 -12 321 -29t148 -82t60 -162q0 -139 -128.5 -235t-455.5 -96q-307 0 -414 66.5t-107 168.5q0 135 173 182
q-128 64 -128 180q0 145 202 226q-179 74 -179 247q0 141 123.5 229t341.5 88q138 0 267 -44q9 86 50.5 141.5t176.5 55.5q44 0 84 -8v-189zM552 870q-77 0 -120.5 -41.5t-43.5 -109.5q0 -154 165 -154q80 0 125.5 45t45.5 109q0 60 -43 105.5t-129 45.5zM353 7
q-18 0 -45.5 -24t-27.5 -58q0 -68 87 -85t204 -17q153 0 214.5 23t61.5 74q0 39 -51.5 60t-274.5 21l-60 -1q-55 0 -74 3q-21 4 -34 4zM566 1191q-54 0 -86 35t-32 80q0 46 33 81.5t85 35.5q47 0 84 -30.5t37 -85.5q0 -53 -35.5 -84.5t-85.5 -31.5z" />
    <glyph glyph-name="Gcommaaccent" unicode="&#x122;" horiz-adv-x="1315" 
d="M1200 730v-730h-146q-16 77 -46 157q-146 -178 -372 -178q-267 0 -415.5 191t-148.5 494q0 326 158.5 524t430.5 198q228 0 368 -128t171 -341l-304 -40q-37 248 -235 248q-130 0 -196.5 -117.5t-66.5 -335.5q0 -210 72 -321t205 -111q86 0 153.5 56t67.5 179h-257v255
h561zM786 -109l-182 -384h-105l55 384h232z" />
    <glyph glyph-name="gcommaaccent" unicode="&#x123;" horiz-adv-x="1133" 
d="M1132 987q-47 10 -79 10q-99 0 -116 -88q81 -85 81 -192q0 -143 -119.5 -228t-344.5 -85q-80 0 -156 15q-51 -30 -51 -77q0 -52 43 -69t207 -25q233 -12 321 -29t148 -82t60 -162q0 -139 -128.5 -235t-455.5 -96q-307 0 -414 66.5t-107 168.5q0 135 173 182
q-128 64 -128 180q0 145 202 226q-179 74 -179 247q0 141 123.5 229t341.5 88q138 0 267 -44q9 86 50.5 141.5t176.5 55.5q44 0 84 -8v-189zM552 870q-77 0 -120.5 -41.5t-43.5 -109.5q0 -154 165 -154q80 0 125.5 45t45.5 109q0 60 -43 105.5t-129 45.5zM353 7
q-18 0 -45.5 -24t-27.5 -58q0 -68 87 -85t204 -17q153 0 214.5 23t61.5 74q0 39 -51.5 60t-274.5 21l-60 -1q-55 0 -74 3q-21 4 -34 4zM441 1165l183 403h105l-55 -403h-233z" />
    <glyph glyph-name="Hcircumflex" unicode="&#x124;" horiz-adv-x="1328" 
d="M1192 1365v-1365h-314v563h-427v-563h-314v1365h314v-532h427v532h314zM1031 1508l-203 -21l-164 138l-164 -138l-202 21l366 314z" />
    <glyph glyph-name="hcircumflex" unicode="&#x125;" horiz-adv-x="1114" 
d="M412 1365v-493q82 159 273 159q102 0 174.5 -44.5t102 -114.5t29.5 -205v-667h-297v569q0 102 -8 140t-36.5 63.5t-71.5 25.5q-56 0 -111 -43.5t-55 -185.5v-569h-289v1365h289zM647 1508l-203 -21l-164 138l-164 -138l-202 21l366 314z" />
    <glyph glyph-name="Hbar" unicode="&#x126;" horiz-adv-x="1328" 
d="M1315 1208v-205h-123v-1003h-314v563h-427v-563h-314v1003h-123v205h123v157h314v-157h427v157h314v-157h123zM451 1003v-170h427v170h-427z" />
    <glyph glyph-name="hbar" unicode="&#x127;" horiz-adv-x="1114" 
d="M7 1110v135h116v120h289v-120h260v-135h-260v-252q79 166 279 166q103 0 172.5 -41t98.5 -111.5t29 -204.5v-667h-297v569q0 102 -8 140t-36.5 63.5t-71.5 25.5q-56 0 -111 -43.5t-55 -185.5v-569h-289v1110h-116z" />
    <glyph glyph-name="Itilde" unicode="&#x128;" horiz-adv-x="593" 
d="M456 1365v-1365h-319v1365h319zM634 1646q-98 -129 -222 -129q-60 0 -160 47q-49 22 -80 22q-62 0 -129 -65l-85 113q100 109 212 109q64 0 148 -40q60 -29 91 -29q69 0 141 83z" />
    <glyph glyph-name="itilde" unicode="&#x129;" horiz-adv-x="543" 
d="M421 1010v-1010h-298v1010h298zM610 1318q-98 -129 -222 -129q-60 0 -160 47q-49 22 -80 22q-62 0 -129 -65l-85 113q100 109 212 109q64 0 148 -40q60 -29 91 -29q69 0 141 83z" />
    <glyph glyph-name="Imacron" unicode="&#x12a;" horiz-adv-x="593" 
d="M456 1365v-1365h-319v1365h319zM615 1692v-143h-614v143h614z" />
    <glyph glyph-name="imacron" unicode="&#x12b;" horiz-adv-x="543" 
d="M421 1010v-1010h-298v1010h298zM587 1372v-143h-614v143h614z" />
    <glyph glyph-name="Ibreve" unicode="&#x12c;" horiz-adv-x="593" 
d="M456 1365v-1365h-319v1365h319zM-31 1776h157q16 -131 160 -131q148 0 163 131h157q-17 -135 -102.5 -211t-220.5 -76q-127 0 -214.5 70.5t-99.5 216.5z" />
    <glyph glyph-name="ibreve" unicode="&#x12d;" horiz-adv-x="543" 
d="M421 1010v-1010h-298v1010h298zM-47 1468h157q16 -131 160 -131q148 0 163 131h157q-17 -135 -102.5 -211t-220.5 -76q-127 0 -214.5 70.5t-99.5 216.5z" />
    <glyph glyph-name="Iogonek" unicode="&#x12e;" horiz-adv-x="593" 
d="M456 0q-126 -86 -126 -170q0 -41 30 -66t73 -25q27 0 77 19l21 -90q-87 -39 -158 -39q-101 0 -166 45t-65 126q0 121 177 200h-182v1365h319v-1365z" />
    <glyph glyph-name="iogonek" unicode="&#x12f;" horiz-adv-x="543" 
d="M421 1393v-298h-298v298h298zM421 0q-124 -75 -124 -163q0 -37 30 -63t68 -26q18 0 72 19l21 -82q-69 -36 -160 -36q-97 0 -152 45.5t-55 112.5q0 49 28 91.5t141 101.5h-167v1010h298v-1010z" />
    <glyph glyph-name="IJ" unicode="&#x132;" horiz-adv-x="1359" 
d="M456 1365v-1365h-319v1365h319zM1233 1365v-974q0 -208 -99.5 -310t-327.5 -102q-100 0 -216 21v265q95 -16 163 -16q60 0 94.5 21.5t50.5 52.5t16 108v934h319z" />
    <glyph glyph-name="ij" unicode="&#x133;" horiz-adv-x="1093" 
d="M421 1010v-1010h-298v1010h298zM421 1393v-298h-298v298h298zM971 1010v-955q0 -80 -2 -146.5t-36 -134.5t-107.5 -103.5t-180.5 -35.5q-61 0 -163 17v234q47 -5 69 -5q60 0 87.5 35.5t27.5 138.5v955h305zM971 1393v-301h-305v301h305z" />
    <glyph glyph-name="Jcircumflex" unicode="&#x134;" horiz-adv-x="780" 
d="M657 1365v-974q0 -208 -99.5 -310t-327.5 -102q-100 0 -216 21v265q95 -16 163 -16q60 0 94.5 21.5t50.5 52.5t16 108v934h319zM871 1508l-203 -21l-164 138l-164 -138l-202 21l366 314z" />
    <glyph glyph-name="jcircumflex" unicode="&#x135;" horiz-adv-x="550" 
d="M427 1010v-955q0 -80 -1.5 -146.5t-35.5 -134.5t-108 -103.5t-181 -35.5q-61 0 -163 17v234q48 -5 70 -5q59 0 87 35.5t28 138.5v955h304zM638 1188l-203 -21l-164 138l-164 -138l-202 21l366 314z" />
    <glyph glyph-name="Kcommaaccent" unicode="&#x136;" horiz-adv-x="1291" 
d="M451 1365v-642l428 642h306l-328 -487l410 -878h-353l-271 592l-192 -279v-313h-314v1365h314zM804 -109l-182 -384h-105l55 384h232z" />
    <glyph glyph-name="kcommaaccent" unicode="&#x137;" horiz-adv-x="1112" 
d="M790 668l329 -668h-329l-211 458l-175 -200v-258h-281v1365h281v-818l44 55q28 38 47 61l295 347h290zM716 -109l-182 -384h-105l55 384h232z" />
    <glyph glyph-name="kgreenlandic" unicode="&#x138;" horiz-adv-x="1112" 
d="M790 668l329 -668h-329l-211 458l-175 -200v-258h-281v1010h281v-463l44 55q28 38 47 61l295 347h290z" />
    <glyph glyph-name="Lacute" unicode="&#x139;" horiz-adv-x="1031" 
d="M461 270h543v-270h-867v1365h324v-1095zM551 1836l76 -168l-440 -187l-50 112z" />
    <glyph glyph-name="lacute" unicode="&#x13a;" horiz-adv-x="543" 
d="M123 0v1365h298v-1365h-298zM523 1832l76 -168l-440 -187l-50 112z" />
    <glyph glyph-name="Lcommaaccent" unicode="&#x13b;" horiz-adv-x="1031" 
d="M461 270h543v-270h-867v1365h324v-1095zM693 -109l-182 -384h-105l55 384h232z" />
    <glyph glyph-name="lcommaaccent" unicode="&#x13c;" horiz-adv-x="543" 
d="M123 0v1365h298v-1365h-298zM387 -109l-182 -384h-105l55 384h232z" />
    <glyph glyph-name="Lcaron" unicode="&#x13d;" horiz-adv-x="1031" 
d="M461 270h543v-270h-867v1365h324v-1095zM915 1365l-183 -403h-105l55 403h233z" />
    <glyph glyph-name="lcaron" unicode="&#x13e;" horiz-adv-x="776" 
d="M123 0v1365h298v-1365h-298zM791 1365l-183 -403h-105l55 403h233z" />
    <glyph glyph-name="Ldot" unicode="&#x13f;" horiz-adv-x="1031" 
d="M461 270h543v-270h-867v1365h324v-1095zM966 551h-309v303h309v-303z" />
    <glyph glyph-name="ldot" unicode="&#x140;" horiz-adv-x="852" 
d="M123 0v1365h298v-1365h-298zM853 551h-309v303h309v-303z" />
    <glyph glyph-name="Nacute" unicode="&#x143;" horiz-adv-x="1324" 
d="M1188 1365v-1365h-273l-535 922q1 -35 2 -46q4 -35 4 -59v-817h-249v1365h345l465 -805q-6 60 -6 91v714h247zM919 1832l76 -168l-440 -187l-50 112z" />
    <glyph glyph-name="nacute" unicode="&#x144;" horiz-adv-x="1124" 
d="M1001 0h-298v567q0 103 -8 141t-39 64.5t-78 26.5q-157 0 -157 -232v-567h-298v1010h277v-171q69 122 136 157t145 35q144 0 232 -77.5t88 -304.5v-649zM806 1516l76 -168l-440 -187l-50 112z" />
    <glyph glyph-name="Ncommaaccent" unicode="&#x145;" horiz-adv-x="1324" 
d="M1188 1365v-1365h-273l-535 922q1 -35 2 -46q4 -35 4 -59v-817h-249v1365h345l465 -805q-6 60 -6 91v714h247zM792 -109l-182 -384h-105l55 384h232z" />
    <glyph glyph-name="ncommaaccent" unicode="&#x146;" horiz-adv-x="1124" 
d="M1001 0h-298v567q0 103 -8 141t-39 64.5t-78 26.5q-157 0 -157 -232v-567h-298v1010h277v-171q69 122 136 157t145 35q144 0 232 -77.5t88 -304.5v-649zM692 -109l-182 -384h-105l55 384h232z" />
    <glyph glyph-name="Ncaron" unicode="&#x147;" horiz-adv-x="1324" 
d="M1188 1365v-1365h-273l-535 922q1 -35 2 -46q4 -35 4 -59v-817h-249v1365h345l465 -805q-6 60 -6 91v714h247zM334 1788l202 20l165 -137l163 137l203 -20l-366 -314z" />
    <glyph glyph-name="ncaron" unicode="&#x148;" horiz-adv-x="1124" 
d="M1001 0h-298v567q0 103 -8 141t-39 64.5t-78 26.5q-157 0 -157 -232v-567h-298v1010h277v-171q69 122 136 157t145 35q144 0 232 -77.5t88 -304.5v-649zM182 1468l202 20l165 -137l163 137l203 -20l-366 -314z" />
    <glyph glyph-name="napostrophe" unicode="&#x149;" horiz-adv-x="1483" 
d="M1360 0h-298v567q0 103 -8 141t-39 64.5t-78 26.5q-157 0 -157 -232v-567h-298v1010h277v-171q69 122 136 157t145 35q144 0 232 -77.5t88 -304.5v-649zM116 808l139 272h-139v285h291v-249l-180 -308h-111z" />
    <glyph glyph-name="Eng" unicode="&#x14a;" horiz-adv-x="1329" 
d="M137 1365h309v-231q84 158 166.5 205t204.5 47t208.5 -58.5t126.5 -152.5t40 -299v-674q0 -189 -7.5 -261.5t-50.5 -147t-122 -116.5t-197 -42q-72 0 -186 23v241q64 -7 94 -7q80 0 117.5 47.5t37.5 187.5v673q0 138 -11.5 188.5t-58 87.5t-121.5 37q-101 0 -168.5 -73
t-67.5 -240v-800h-314v1365z" />
    <glyph glyph-name="eng" unicode="&#x14b;" horiz-adv-x="1124" 
d="M519 -348v234q47 -5 69 -5q62 0 88.5 38.5t26.5 135.5v512q0 103 -8 141t-39 64.5t-78 26.5q-157 0 -157 -232v-567h-298v1010h277v-171q69 122 136 157t145 35q144 0 232 -77.5t88 -304.5v-594q0 -140 -7 -193t-42 -107.5t-104 -87t-172 -32.5q-60 0 -157 17z" />
    <glyph glyph-name="Omacron" unicode="&#x14c;" horiz-adv-x="1309" 
d="M650 -21q-276 0 -427 207t-151 501q0 299 153 499t436 200q286 0 431.5 -213.5t145.5 -488.5q0 -297 -150 -501t-438 -204zM659 1125q-252 0 -252 -442q0 -443 252 -443q244 0 244 442q0 443 -244 443zM975 1692v-143h-614v143h614z" />
    <glyph glyph-name="omacron" unicode="&#x14d;" horiz-adv-x="1096" 
d="M542 1031q231 0 360.5 -151t129.5 -378q0 -224 -134.5 -373.5t-357.5 -149.5q-216 0 -345.5 148t-129.5 380q0 161 58.5 273.5t160.5 181.5t258 69zM550 836q-85 0 -128 -65.5t-43 -260.5q0 -179 41 -257t128 -78q76 0 123 66.5t47 253.5q0 199 -41.5 270t-126.5 71z
M862 1372v-143h-614v143h614z" />
    <glyph glyph-name="Obreve" unicode="&#x14e;" horiz-adv-x="1309" 
d="M650 -21q-276 0 -427 207t-151 501q0 299 153 499t436 200q286 0 431.5 -213.5t145.5 -488.5q0 -297 -150 -501t-438 -204zM659 1125q-252 0 -252 -442q0 -443 252 -443q244 0 244 442q0 443 -244 443zM337 1776h157q16 -131 160 -131q148 0 163 131h157
q-17 -135 -102.5 -211t-220.5 -76q-127 0 -214.5 70.5t-99.5 216.5z" />
    <glyph glyph-name="obreve" unicode="&#x14f;" horiz-adv-x="1096" 
d="M542 1031q231 0 360.5 -151t129.5 -378q0 -224 -134.5 -373.5t-357.5 -149.5q-216 0 -345.5 148t-129.5 380q0 161 58.5 273.5t160.5 181.5t258 69zM550 836q-85 0 -128 -65.5t-43 -260.5q0 -179 41 -257t128 -78q76 0 123 66.5t47 253.5q0 199 -41.5 270t-126.5 71z
M230 1468h157q16 -131 160 -131q148 0 163 131h157q-17 -135 -102.5 -211t-220.5 -76q-127 0 -214.5 70.5t-99.5 216.5z" />
    <glyph glyph-name="Ohungarumlaut" unicode="&#x150;" horiz-adv-x="1309" 
d="M650 -21q-276 0 -427 207t-151 501q0 299 153 499t436 200q286 0 431.5 -213.5t145.5 -488.5q0 -297 -150 -501t-438 -204zM659 1125q-252 0 -252 -442q0 -443 252 -443q244 0 244 442q0 443 -244 443zM704 1836l97 -141l-352 -214l-63 98zM1060 1836l96 -141l-351 -214
l-64 98z" />
    <glyph glyph-name="ohungarumlaut" unicode="&#x151;" horiz-adv-x="1097" 
d="M542 1031q231 0 360.5 -151t129.5 -378q0 -224 -134.5 -373.5t-357.5 -149.5q-216 0 -345.5 148t-129.5 380q0 161 58.5 273.5t160.5 181.5t258 69zM550 836q-85 0 -128 -65.5t-43 -260.5q0 -179 41 -257t128 -78q76 0 123 66.5t47 253.5q0 199 -41.5 270t-126.5 71z
M599 1516l97 -141l-352 -214l-63 98zM955 1516l96 -141l-351 -214l-64 98z" />
    <glyph glyph-name="Racute" unicode="&#x154;" horiz-adv-x="1346" 
d="M459 541v-541h-322v1365h600q166 0 266.5 -38.5t166.5 -141.5t66 -229q0 -246 -237 -353l252 -603h-353l-210 541h-229zM459 1122v-348h196q96 0 139.5 13.5t77.5 60t34 106.5q0 57 -34 102t-74 55.5t-150 10.5h-189zM887 1836l76 -168l-440 -187l-50 112z" />
    <glyph glyph-name="racute" unicode="&#x155;" horiz-adv-x="711" 
d="M412 0h-289v1010h273v-188q63 210 218 210q22 0 54 -3v-294q-91 0 -141.5 -28t-82.5 -100.5t-32 -195.5v-411zM668 1516l76 -168l-440 -187l-50 112z" />
    <glyph glyph-name="Rcommaaccent" unicode="&#x156;" horiz-adv-x="1346" 
d="M459 541v-541h-322v1365h600q166 0 266.5 -38.5t166.5 -141.5t66 -229q0 -246 -237 -353l252 -603h-353l-210 541h-229zM459 1122v-348h196q96 0 139.5 13.5t77.5 60t34 106.5q0 57 -34 102t-74 55.5t-150 10.5h-189zM803 -109l-182 -384h-105l55 384h232z" />
    <glyph glyph-name="rcommaaccent" unicode="&#x157;" horiz-adv-x="711" 
d="M412 0h-289v1010h273v-188q63 210 218 210q22 0 54 -3v-294q-91 0 -141.5 -28t-82.5 -100.5t-32 -195.5v-411zM388 -109l-182 -384h-105l55 384h232z" />
    <glyph glyph-name="Rcaron" unicode="&#x158;" horiz-adv-x="1346" 
d="M459 541v-541h-322v1365h600q166 0 266.5 -38.5t166.5 -141.5t66 -229q0 -246 -237 -353l252 -603h-353l-210 541h-229zM459 1122v-348h196q96 0 139.5 13.5t77.5 60t34 106.5q0 57 -34 102t-74 55.5t-150 10.5h-189zM274 1796l202 20l165 -137l163 137l203 -20
l-366 -314z" />
    <glyph glyph-name="rcaron" unicode="&#x159;" horiz-adv-x="711" 
d="M412 0h-289v1010h273v-188q63 210 218 210q22 0 54 -3v-294q-91 0 -141.5 -28t-82.5 -100.5t-32 -195.5v-411zM37 1468l202 20l165 -137l163 137l203 -20l-366 -314z" />
    <glyph glyph-name="Sacute" unicode="&#x15a;" horiz-adv-x="1189" 
d="M1080 1065l-272 -91q-55 162 -233 162q-190 0 -190 -123q0 -49 35.5 -83t160.5 -59q209 -42 306 -85t163.5 -138.5t66.5 -213.5q0 -185 -142.5 -320t-422.5 -135q-210 0 -357.5 95.5t-194.5 283.5l296 67q50 -191 278 -191q110 0 164 42.5t54 101.5q0 60 -49 93t-189 62
q-261 54 -372 147.5t-111 273.5q0 182 132.5 307t359.5 125q402 0 517 -321zM835 1840l76 -168l-440 -187l-50 112z" />
    <glyph glyph-name="sacute" unicode="&#x15b;" horiz-adv-x="969" 
d="M879 766l-217 -58q-38 137 -197 137q-150 0 -150 -91q0 -36 27.5 -57.5t143.5 -36.5q173 -23 256 -53t131.5 -101t48.5 -175q0 -156 -118.5 -254t-331.5 -98q-386 0 -461 299l251 37q31 -136 224 -136q74 0 125 26.5t51 71.5q0 70 -113 83q-306 38 -402.5 117.5
t-96.5 221.5q0 144 112 238t314 94q160 0 256 -63t147 -202zM731 1516l76 -168l-440 -187l-50 112z" />
    <glyph glyph-name="Scircumflex" unicode="&#x15c;" horiz-adv-x="1189" 
d="M1080 1065l-272 -91q-55 162 -233 162q-190 0 -190 -123q0 -49 35.5 -83t160.5 -59q209 -42 306 -85t163.5 -138.5t66.5 -213.5q0 -185 -142.5 -320t-422.5 -135q-210 0 -357.5 95.5t-194.5 283.5l296 67q50 -191 278 -191q110 0 164 42.5t54 101.5q0 60 -49 93t-189 62
q-261 54 -372 147.5t-111 273.5q0 182 132.5 307t359.5 125q402 0 517 -321zM951 1512l-203 -21l-164 138l-164 -138l-202 21l366 314z" />
    <glyph glyph-name="scircumflex" unicode="&#x15d;" horiz-adv-x="969" 
d="M879 766l-217 -58q-38 137 -197 137q-150 0 -150 -91q0 -36 27.5 -57.5t143.5 -36.5q173 -23 256 -53t131.5 -101t48.5 -175q0 -156 -118.5 -254t-331.5 -98q-386 0 -461 299l251 37q31 -136 224 -136q74 0 125 26.5t51 71.5q0 70 -113 83q-306 38 -402.5 117.5
t-96.5 221.5q0 144 112 238t314 94q160 0 256 -63t147 -202zM847 1188l-203 -21l-164 138l-164 -138l-202 21l366 314z" />
    <glyph glyph-name="Tcommaaccent" unicode="&#x162;" horiz-adv-x="1002" 
d="M1002 1365v-270h-338v-1095h-324v1095h-340v270h1002zM631 -109l-182 -384h-105l55 384h232z" />
    <glyph glyph-name="tcommaaccent" unicode="&#x163;" horiz-adv-x="720" 
d="M458 778v-427q0 -80 24 -107t113 -27q41 0 95 4v-221q-130 -22 -187 -22q-186 0 -264 71.5t-78 258.5v470h-160v232h177l24 298l256 20v-318h218v-232h-218zM537 -109l-182 -384h-105l55 384h232z" />
    <glyph glyph-name="Tcaron" unicode="&#x164;" horiz-adv-x="1002" 
d="M1002 1365v-270h-338v-1095h-324v1095h-340v270h1002zM134 1792l202 20l165 -137l163 137l203 -20l-366 -314z" />
    <glyph glyph-name="tcaron" unicode="&#x165;" horiz-adv-x="841" 
d="M458 778v-427q0 -80 24 -107t113 -27q41 0 95 4v-221q-130 -22 -187 -22q-186 0 -264 71.5t-78 258.5v470h-160v232h177l24 298l256 20v-318h218v-232h-218zM856 1523l-183 -403h-105l55 403h233z" />
    <glyph glyph-name="Tbar" unicode="&#x166;" horiz-adv-x="1002" 
d="M94 690v205h246v200h-340v270h1002v-270h-338v-200h245v-205h-245v-690h-324v690h-246z" />
    <glyph glyph-name="tbar" unicode="&#x167;" horiz-adv-x="720" 
d="M662 631v-135h-204v-145q0 -80 24 -107t113 -27q41 0 95 4v-221q-130 -22 -187 -22q-186 0 -264 71.5t-78 258.5v188h-146v135h146v147h-160v232h177l24 298l256 20v-318h218v-232h-218v-147h204z" />
    <glyph glyph-name="Utilde" unicode="&#x168;" horiz-adv-x="1330" 
d="M1213 1365v-850q0 -206 -47 -306.5t-173.5 -165t-323.5 -64.5t-313.5 58t-174.5 165t-58 313v850h347v-850q0 -110 18.5 -162t74 -82.5t136.5 -30.5q90 0 146.5 30t75 79.5t18.5 165.5v850h274zM1038 1646q-98 -129 -222 -129q-60 0 -160 47q-49 22 -80 22
q-62 0 -129 -65l-85 113q100 109 212 109q64 0 148 -40q60 -29 91 -29q69 0 141 83z" />
    <glyph glyph-name="utilde" unicode="&#x169;" horiz-adv-x="1109" 
d="M986 1010v-1010h-276v172q-78 -193 -298 -193q-114 0 -175 42.5t-87.5 116t-26.5 212.5v660h289v-660q0 -136 112 -136q57 0 99 32.5t53.5 69.5t11.5 127v567h298zM897 1318q-98 -129 -222 -129q-60 0 -160 47q-49 22 -80 22q-62 0 -129 -65l-85 113q100 109 212 109
q64 0 148 -40q60 -29 91 -29q69 0 141 83z" />
    <glyph glyph-name="Umacron" unicode="&#x16a;" horiz-adv-x="1330" 
d="M1213 1365v-850q0 -206 -47 -306.5t-173.5 -165t-323.5 -64.5t-313.5 58t-174.5 165t-58 313v850h347v-850q0 -110 18.5 -162t74 -82.5t136.5 -30.5q90 0 146.5 30t75 79.5t18.5 165.5v850h274zM971 1692v-143h-614v143h614z" />
    <glyph glyph-name="umacron" unicode="&#x16b;" horiz-adv-x="1109" 
d="M986 1010v-1010h-276v172q-78 -193 -298 -193q-114 0 -175 42.5t-87.5 116t-26.5 212.5v660h289v-660q0 -136 112 -136q57 0 99 32.5t53.5 69.5t11.5 127v567h298zM858 1372v-143h-614v143h614z" />
    <glyph glyph-name="Ubreve" unicode="&#x16c;" horiz-adv-x="1330" 
d="M1213 1365v-850q0 -206 -47 -306.5t-173.5 -165t-323.5 -64.5t-313.5 58t-174.5 165t-58 313v850h347v-850q0 -110 18.5 -162t74 -82.5t136.5 -30.5q90 0 146.5 30t75 79.5t18.5 165.5v850h274zM377 1776h157q16 -131 160 -131q148 0 163 131h157q-17 -135 -102.5 -211
t-220.5 -76q-127 0 -214.5 70.5t-99.5 216.5z" />
    <glyph glyph-name="ubreve" unicode="&#x16d;" horiz-adv-x="1109" 
d="M986 1010v-1010h-276v172q-78 -193 -298 -193q-114 0 -175 42.5t-87.5 116t-26.5 212.5v660h289v-660q0 -136 112 -136q57 0 99 32.5t53.5 69.5t11.5 127v567h298zM233 1468h157q16 -131 160 -131q148 0 163 131h157q-17 -135 -102.5 -211t-220.5 -76q-127 0 -214.5 70.5
t-99.5 216.5z" />
    <glyph glyph-name="Uring" unicode="&#x16e;" horiz-adv-x="1330" 
d="M1213 1365v-850q0 -206 -47 -306.5t-173.5 -165t-323.5 -64.5t-313.5 58t-174.5 165t-58 313v850h347v-850q0 -110 18.5 -162t74 -82.5t136.5 -30.5q90 0 146.5 30t75 79.5t18.5 165.5v850h274zM677 1445q-82 0 -135.5 58.5t-53.5 129.5q0 72 53.5 130t136.5 58t139 -55
t56 -131q0 -77 -56.5 -133.5t-139.5 -56.5zM680 1557q33 0 57 22.5t24 53.5t-23.5 53.5t-56.5 22.5q-35 0 -58 -23t-23 -53q0 -31 23.5 -53.5t56.5 -22.5z" />
    <glyph glyph-name="uring" unicode="&#x16f;" horiz-adv-x="1109" 
d="M986 1010v-1010h-276v172q-78 -193 -298 -193q-114 0 -175 42.5t-87.5 116t-26.5 212.5v660h289v-660q0 -136 112 -136q57 0 99 32.5t53.5 69.5t11.5 127v567h298zM548 1137q-82 0 -135.5 58.5t-53.5 129.5q0 72 53.5 130t136.5 58t139 -55t56 -131q0 -77 -56.5 -133.5
t-139.5 -56.5zM551 1249q33 0 57 22.5t24 53.5t-23.5 53.5t-56.5 22.5q-35 0 -58 -23t-23 -53q0 -31 23.5 -53.5t56.5 -22.5z" />
    <glyph glyph-name="Uhungarumlaut" unicode="&#x170;" horiz-adv-x="1330" 
d="M1213 1365v-850q0 -206 -47 -306.5t-173.5 -165t-323.5 -64.5t-313.5 58t-174.5 165t-58 313v850h347v-850q0 -110 18.5 -162t74 -82.5t136.5 -30.5q90 0 146.5 30t75 79.5t18.5 165.5v850h274zM728 1836l97 -141l-352 -214l-63 98zM1084 1836l96 -141l-351 -214l-64 98z
" />
    <glyph glyph-name="uhungarumlaut" unicode="&#x171;" horiz-adv-x="1109" 
d="M986 1010v-1010h-276v172q-78 -193 -298 -193q-114 0 -175 42.5t-87.5 116t-26.5 212.5v660h289v-660q0 -136 112 -136q57 0 99 32.5t53.5 69.5t11.5 127v567h298zM605 1516l97 -141l-352 -214l-63 98zM961 1516l96 -141l-351 -214l-64 98z" />
    <glyph glyph-name="Uogonek" unicode="&#x172;" horiz-adv-x="1330" 
d="M1080 -236l21 -89q-85 -39 -178 -39q-111 0 -174.5 46t-63.5 126q0 45 25 86.5t129 100.5q-93 -16 -170 -16q-197 0 -313.5 58t-174.5 165t-58 313v850h347v-850q0 -110 18.5 -162t74 -82.5t136.5 -30.5q90 0 146.5 30t75 79.5t18.5 165.5v850h274v-850q0 -219 -42 -297
t-156 -168q-142 -112 -142 -204q0 -100 119 -100q42 0 88 18z" />
    <glyph glyph-name="uogonek" unicode="&#x173;" horiz-adv-x="1109" 
d="M986 0q-137 -79 -137 -159q0 -93 112 -93q24 0 78 19l21 -82q-72 -36 -172 -36q-102 0 -158.5 44.5t-56.5 113.5q0 120 176 193h-139v172q-78 -193 -298 -193q-114 0 -175 42.5t-87.5 116t-26.5 212.5v660h289v-660q0 -136 112 -136q57 0 99 32.5t53.5 69.5t11.5 127v567
h298v-1010z" />
    <glyph glyph-name="Wcircumflex" unicode="&#x174;" horiz-adv-x="1788" 
d="M1775 1365l-344 -1365h-313l-225 903l-216 -903h-312l-351 1365h326l188 -833q1 -6 11 -44q4 -14 11 -42l223 919h295l230 -919q7 26 20 86l194 833h263zM1295 1508l-203 -21l-164 138l-164 -138l-202 21l366 314z" />
    <glyph glyph-name="wcircumflex" unicode="&#x175;" horiz-adv-x="1477" 
d="M1459 1010l-304 -1010h-263l-160 650l-159 -650h-251l-311 1010h311l164 -617l154 617h270l148 -621l171 621h230zM1129 1188l-203 -21l-164 138l-164 -138l-202 21l366 314z" />
    <glyph glyph-name="Ycircumflex" unicode="&#x176;" horiz-adv-x="1068" 
d="M1123 1365l-429 -790v-575h-320v575l-429 790h371l261 -518l259 518h287zM915 1508l-203 -21l-164 138l-164 -138l-202 21l366 314z" />
    <glyph glyph-name="ycircumflex" unicode="&#x177;" horiz-adv-x="912" 
d="M905 1010l-316 -969q-53 -162 -90.5 -234.5t-108 -116t-196.5 -43.5q-63 0 -143 12v229q79 -14 146 -14q88 0 118 33t45 93l-367 1010h315l194 -601l186 601h217zM830 1188l-203 -21l-164 138l-164 -138l-202 21l366 314z" />
    <glyph glyph-name="Zacute" unicode="&#x179;" horiz-adv-x="1184" 
d="M1121 1130l-690 -869h712v-261h-1102v232l688 875h-642v258h1034v-235zM851 1836l76 -168l-440 -187l-50 112z" />
    <glyph glyph-name="zacute" unicode="&#x17a;" horiz-adv-x="877" 
d="M816 1010v-186l-450 -607h470v-217h-795v217l445 590h-408v203h738zM710 1516l76 -168l-440 -187l-50 112z" />
    <glyph glyph-name="Zdotaccent" unicode="&#x17b;" horiz-adv-x="1184" 
d="M1121 1130l-690 -869h712v-261h-1102v232l688 875h-642v258h1034v-235zM602 1511q-54 0 -86 35t-32 80q0 46 33 81.5t85 35.5q47 0 84 -30.5t37 -85.5q0 -53 -35.5 -84.5t-85.5 -31.5z" />
    <glyph glyph-name="zdotaccent" unicode="&#x17c;" horiz-adv-x="877" 
d="M816 1010v-186l-450 -607h470v-217h-795v217l445 590h-408v203h738zM450 1191q-54 0 -86 35t-32 80q0 46 33 81.5t85 35.5q47 0 84 -30.5t37 -85.5q0 -53 -35.5 -84.5t-85.5 -31.5z" />
    <glyph glyph-name="longs" unicode="&#x17f;" horiz-adv-x="1201" 
d="M707 0h-289v1010q0 158 23.5 231t108 126t226.5 53q61 0 139 -11v-230q-64 5 -106 5q-61 0 -81.5 -32t-20.5 -104v-1048z" />
    <glyph glyph-name="Aringacute" unicode="&#x1fa;" horiz-adv-x="1245" 
d="M782 1945l66 -174l-446 -153l-50 119zM804 1362l431 -1362h-344l-83 281h-442l-86 -281h-280l439 1363q-21 39 -21 82q0 78 59 134t144 56t144.5 -56t59.5 -134q0 -43 -21 -83zM621 1358q37 0 62.5 26t25.5 61q0 45 -27.5 66.5t-60.5 21.5q-35 0 -61.5 -24t-26.5 -61
q0 -39 26 -64.5t62 -25.5zM443 533h290l-145 513z" />
    <glyph glyph-name="aringacute" unicode="&#x1fb;" horiz-adv-x="1109" 
d="M1005 0h-289q-14 60 -14 158q-76 -108 -151.5 -143.5t-171.5 -35.5q-142 0 -229.5 77t-87.5 207q0 95 51 175t164 125.5t412 67.5v58q0 147 -147 147q-157 0 -175 -147l-275 26q27 172 163 244t308 72q103 0 194 -24t142 -72t69 -101.5t18 -186.5v-458q0 -132 19 -189z
M689 484q-313 -31 -313 -189q0 -53 33 -91.5t94 -38.5q79 0 132.5 65.5t53.5 161.5v92zM578 1096q-82 0 -135.5 58.5t-53.5 129.5q0 72 53.5 130t136.5 58t139 -55t56 -131q0 -77 -56.5 -133.5t-139.5 -56.5zM581 1208q33 0 57 22.5t24 53.5t-23.5 53.5t-56.5 22.5
q-35 0 -58 -23t-23 -53q0 -31 23.5 -53.5t56.5 -22.5zM710 1816l76 -168l-440 -187l-50 112z" />
    <glyph glyph-name="AEacute" unicode="&#x1fc;" horiz-adv-x="1726" 
d="M1671 1107h-626v-280h500v-256h-500v-301h626v-270h-946v315h-319l-144 -315h-276l625 1365h1060v-258zM501 543h224v492zM1331 1836l76 -168l-440 -187l-50 112z" />
    <glyph glyph-name="aeacute" unicode="&#x1fd;" horiz-adv-x="1639" 
d="M1574 455h-625q0 -158 54 -210.5t131 -52.5q147 0 178 156l262 -22q-92 -347 -446 -347q-242 0 -384 181q-143 -181 -374 -181q-142 0 -225.5 81.5t-83.5 200.5q0 149 111.5 245.5t508.5 124.5v78q0 127 -147 127q-153 0 -170 -152l-270 25q25 171 159 246.5t296 75.5
q176 0 296 -93q120 93 274 93q189 0 322 -129t133 -447zM950 631h348q-10 118 -50.5 161.5t-115.5 43.5q-158 0 -182 -205zM681 483q-314 -16 -314 -187q0 -52 34 -90.5t91 -38.5q78 0 133.5 63t55.5 158v95zM1021 1516l76 -168l-440 -187l-50 112z" />
    <glyph glyph-name="Oslashacute" unicode="&#x1fe;" horiz-adv-x="1309" 
d="M1186 1476l-134 -248q186 -227 186 -546q0 -295 -150.5 -499t-448.5 -204q-139 0 -253 56l-81 -146h-181l137 251q-189 216 -189 538q0 293 147 500.5t445 207.5q141 0 255 -55l85 145h182zM435 453l354 633q-56 39 -132 39q-146 0 -198.5 -136t-52.5 -331
q0 -119 29 -205zM521 283q49 -43 145 -43q237 0 237 438q0 137 -25 244zM819 1836l76 -168l-440 -187l-50 112z" />
    <glyph glyph-name="oslashacute" unicode="&#x1ff;" horiz-adv-x="1096" 
d="M974 1115l-109 -198q167 -150 167 -415q0 -223 -133 -373t-353 -150q-88 0 -191 32l-74 -116h-162l110 198q-164 153 -164 409q0 220 122 374.5t356 154.5q128 0 199 -36l71 120h161zM388 370l244 440q-22 26 -84 26q-83 0 -126.5 -63.5t-43.5 -223.5q0 -75 10 -179z
M460 204q40 -30 85 -30q171 0 171 313q0 88 -9 164zM711 1516l76 -168l-440 -187l-50 112z" />
    <glyph glyph-name="tonos" unicode="&#x384;" horiz-adv-x="1024" 
d="M34 1475l162 -110l-320 -355l-97 78z" />
    <glyph glyph-name="dieresistonos" unicode="&#x385;" horiz-adv-x="1024" 
d="M667 1798l117 -130l-287 -209l-80 87zM677 1191q-54 0 -86 35t-32 80q0 46 33.5 81.5t85.5 35.5q48 0 84 -31t36 -85q0 -53 -35.5 -84.5t-85.5 -31.5zM343 1191q-54 0 -86 35t-32 80q0 46 33 81.5t85 35.5q47 0 84 -30.5t37 -85.5q0 -53 -35.5 -84.5t-85.5 -31.5z" />
    <glyph glyph-name="Alphatonos" unicode="&#x386;" horiz-adv-x="1245" 
d="M808 1365l427 -1365h-344l-83 281h-442l-86 -281h-280l437 1365h371zM443 533h290l-145 479zM139 1475l162 -110l-320 -355l-97 78z" />
    <glyph glyph-name="anoteleia" unicode="&#x387;" horiz-adv-x="309" 
d="M309 367h-309v303h309v-303z" />
    <glyph glyph-name="Epsilontonos" unicode="&#x388;" horiz-adv-x="1167" 
d="M1113 1105h-651v-280h512v-257h-512v-298h651v-270h-976v1365h976v-260zM-113 1475l162 -110l-320 -355l-97 78z" />
    <glyph glyph-name="Etatonos" unicode="&#x389;" horiz-adv-x="1328" 
d="M1192 1365v-1365h-314v563h-427v-563h-314v1365h314v-532h427v532h314zM-114 1475l162 -110l-320 -355l-97 78z" />
    <glyph glyph-name="Iotatonos" unicode="&#x38a;" horiz-adv-x="593" 
d="M456 1365v-1365h-319v1365h319zM-115 1475l162 -110l-320 -355l-97 78z" />
    <glyph glyph-name="Omicrontonos" unicode="&#x38c;" horiz-adv-x="1309" 
d="M650 -21q-276 0 -427 207t-151 501q0 299 153 499t436 200q286 0 431.5 -213.5t145.5 -488.5q0 -297 -150 -501t-438 -204zM659 1125q-252 0 -252 -442q0 -443 252 -443q244 0 244 442q0 443 -244 443zM26 1475l162 -110l-320 -355l-97 78z" />
    <glyph glyph-name="Upsilontonos" unicode="&#x38e;" horiz-adv-x="1068" 
d="M1124 1365l-429 -790v-575h-320v575l-429 790h371l261 -518l259 518h287zM-258 1475l162 -110l-320 -355l-97 78z" />
    <glyph glyph-name="Omegatonos" unicode="&#x38f;" horiz-adv-x="1402" 
d="M56 0v258h333q-315 135 -315 525q0 273 169.5 433.5t457.5 160.5t457.5 -161t169.5 -433q0 -389 -315 -525h333v-258h-567v258q214 117 214 467q0 186 -72 295.5t-220 109.5t-220 -109.5t-72 -295.5q0 -350 214 -467v-258h-567zM4 1475l162 -110l-320 -355l-97 78z" />
    <glyph glyph-name="iotadieresistonos" unicode="&#x390;" horiz-adv-x="543" 
d="M421 1010v-1010h-298v1010h298zM427 1798l117 -130l-287 -209l-80 87zM437 1191q-54 0 -86 35t-32 80q0 46 33.5 81.5t85.5 35.5q48 0 84 -31t36 -85q0 -53 -35.5 -84.5t-85.5 -31.5zM103 1191q-54 0 -86 35t-32 80q0 46 33 81.5t85 35.5q47 0 84 -30.5t37 -85.5
q0 -53 -35.5 -84.5t-85.5 -31.5z" />
    <glyph glyph-name="Alpha" unicode="&#x391;" horiz-adv-x="1245" 
d="M808 1365l427 -1365h-344l-83 281h-442l-86 -281h-280l437 1365h371zM443 533h290l-145 479z" />
    <glyph glyph-name="Beta" unicode="&#x392;" horiz-adv-x="1334" 
d="M137 1365h636q171 0 257 -42t142 -120t56 -190q0 -227 -246 -303q142 -32 213 -127t71 -207q0 -153 -116 -264.5t-377 -111.5h-636v1365zM456 1124v-299h242q133 0 167.5 52.5t34.5 100.5q0 52 -28.5 89.5t-62.5 47t-134 9.5h-219zM456 582v-329h246q126 0 178 44t52 123
q0 66 -50 114t-166 48h-260z" />
    <glyph glyph-name="Gamma" unicode="&#x393;" horiz-adv-x="957" 
d="M136 0v1365h821v-270h-507v-1095h-314z" />
    <glyph glyph-name="Delta" unicode="&#x394;" horiz-adv-x="1214" 
d="M-29 0l449 1365h355l468 -1365h-1272zM310 270h515l-244 821h-23z" />
    <glyph glyph-name="Epsilon" unicode="&#x395;" horiz-adv-x="1167" 
d="M1112 1105h-651v-280h512v-257h-512v-298h651v-270h-976v1365h976v-260z" />
    <glyph glyph-name="Zeta" unicode="&#x396;" horiz-adv-x="1184" 
d="M1121 1130l-690 -869h712v-261h-1102v232l688 875h-642v258h1034v-235z" />
    <glyph glyph-name="Eta" unicode="&#x397;" horiz-adv-x="1328" 
d="M1192 1365v-1365h-314v563h-427v-563h-314v1365h314v-532h427v532h314z" />
    <glyph glyph-name="Theta" unicode="&#x398;" horiz-adv-x="1422" 
d="M711 1386q291 0 465.5 -196.5t174.5 -505.5q0 -305 -173.5 -505t-470.5 -200q-281 0 -458 188.5t-177 518.5q0 177 73.5 340t220 261.5t345.5 98.5zM711 1125q-151 0 -233 -129t-82 -312q0 -221 91.5 -332.5t224.5 -111.5q137 0 226 118t89 326q0 202 -88.5 321.5
t-227.5 119.5zM893 812v-230h-362v230h362z" />
    <glyph glyph-name="Iota" unicode="&#x399;" horiz-adv-x="593" 
d="M456 1365v-1365h-319v1365h319z" />
    <glyph glyph-name="Kappa" unicode="&#x39a;" horiz-adv-x="1291" 
d="M451 1365v-642l428 642h306l-328 -487l410 -878h-353l-271 592l-192 -279v-313h-314v1365h314z" />
    <glyph glyph-name="Lambda" unicode="&#x39b;" horiz-adv-x="1152" 
d="M251 0h-281l384 1365h428l390 -1365h-346l-287 1081z" />
    <glyph glyph-name="Mu" unicode="&#x39c;" horiz-adv-x="1754" 
d="M740 0l-336 1113v-1113h-268v1365h498l239 -817l252 817h499v-1365h-322v1113l-343 -1113h-219z" />
    <glyph glyph-name="Nu" unicode="&#x39d;" horiz-adv-x="1324" 
d="M1188 1365v-1365h-273l-535 922q1 -35 2 -46q4 -35 4 -59v-817h-249v1365h345l465 -805q-6 60 -6 91v714h247z" />
    <glyph glyph-name="Xi" unicode="&#x39e;" horiz-adv-x="1099" 
d="M75 1107v258h948v-258h-948zM205 577v248h688v-248h-688zM68 0v270h962v-270h-962z" />
    <glyph glyph-name="Omicron" unicode="&#x39f;" horiz-adv-x="1309" 
d="M650 -21q-276 0 -427 207t-151 501q0 299 153 499t436 200q286 0 431.5 -213.5t145.5 -488.5q0 -297 -150 -501t-438 -204zM659 1125q-252 0 -252 -442q0 -443 252 -443q244 0 244 442q0 443 -244 443z" />
    <glyph glyph-name="Pi" unicode="&#x3a0;" horiz-adv-x="1286" 
d="M136 0v1365h1013v-1365h-314v1107h-385v-1107h-314z" />
    <glyph glyph-name="Rho" unicode="&#x3a1;" horiz-adv-x="1236" 
d="M461 507v-507h-325v1365h538q180 0 275.5 -38.5t170.5 -137.5t75 -243q0 -101 -40 -197t-113 -151t-141.5 -73t-214.5 -18h-225zM450 755h208q119 0 167 55t48 126q0 83 -53.5 132t-162.5 49h-207v-362z" />
    <glyph glyph-name="Sigma" unicode="&#x3a3;" horiz-adv-x="1070" 
d="M61 0v256l393 441l-365 410v258h914v-258h-547l331 -356l-410 -481h664v-270h-980z" />
    <glyph glyph-name="Tau" unicode="&#x3a4;" horiz-adv-x="1002" 
d="M1002 1365v-270h-338v-1095h-324v1095h-340v270h1002z" />
    <glyph glyph-name="Upsilon" unicode="&#x3a5;" horiz-adv-x="1068" 
d="M1123 1365l-429 -790v-575h-320v575l-429 790h371l261 -518l259 518h287z" />
    <glyph glyph-name="Phi" unicode="&#x3a6;" horiz-adv-x="1536" 
d="M636 127q-277 25 -419 171t-142 385t141.5 384.5t419.5 171.5v167h263v-167q280 -26 420.5 -172t140.5 -384q0 -239 -141 -384.5t-420 -171.5v-168h-263v168zM636 1011q-267 -66 -267 -328t267 -328v656zM899 355q268 66 268 328t-268 328v-656z" />
    <glyph glyph-name="Chi" unicode="&#x3a7;" horiz-adv-x="1228" 
d="M1175 1365l-373 -634l422 -731h-370l-274 496l-274 -496h-303l422 726l-374 639h372l221 -415l232 415h299z" />
    <glyph glyph-name="Psi" unicode="&#x3a8;" horiz-adv-x="1732" 
d="M709 0v244q-179 4 -297 49t-183 125.5t-88 195t-23 348.5v403h314v-403q0 -216 15 -288t73.5 -114t188.5 -54v859h314v-859q133 12 190 54.5t72.5 114t15.5 287.5v403h314v-403q0 -236 -21 -345t-90.5 -195.5t-187 -129.5t-293.5 -48v-244h-314z" />
    <glyph glyph-name="Omega" unicode="&#x3a9;" horiz-adv-x="1402" 
d="M56 0v258h333q-315 135 -315 525q0 273 169.5 433.5t457.5 160.5t457.5 -161t169.5 -433q0 -389 -315 -525h333v-258h-567v258q214 117 214 467q0 186 -72 295.5t-220 109.5t-220 -109.5t-72 -295.5q0 -350 214 -467v-258h-567z" />
    <glyph glyph-name="Iotadieresis" unicode="&#x3aa;" horiz-adv-x="593" 
d="M453 1365v-1365h-319v1365h319zM469 1512q-54 0 -86 35t-32 80q0 46 33.5 81.5t85.5 35.5q48 0 84 -31t36 -85q0 -53 -35.5 -84.5t-85.5 -31.5zM135 1512q-54 0 -86 35t-32 80q0 46 33 81.5t85 35.5q47 0 84 -30.5t37 -85.5q0 -53 -35.5 -84.5t-85.5 -31.5z" />
    <glyph glyph-name="Upsilondieresis" unicode="&#x3ab;" horiz-adv-x="1068" 
d="M1123 1365l-429 -790v-575h-320v575l-429 790h371l261 -518l259 518h287zM733 1511q-54 0 -86 35t-32 80q0 46 33.5 81.5t85.5 35.5q48 0 84 -31t36 -85q0 -53 -35.5 -84.5t-85.5 -31.5zM399 1511q-54 0 -86 35t-32 80q0 46 33 81.5t85 35.5q47 0 84 -30.5t37 -85.5
q0 -53 -35.5 -84.5t-85.5 -31.5z" />
    <glyph glyph-name="alphatonos" unicode="&#x3ac;" horiz-adv-x="1270" 
d="M1250 0h-330l-83 234q-125 -255 -343 -255q-192 0 -310.5 155.5t-118.5 378.5q0 231 126.5 374.5t332.5 143.5q212 0 325 -210l59 189h316l-196 -478zM775 512q-76 230 -122.5 274.5t-97.5 44.5q-75 0 -125.5 -86.5t-50.5 -238.5q0 -137 50 -232.5t127 -95.5q85 0 133 97
t86 237zM801 1516l76 -168l-440 -187l-50 112z" />
    <glyph glyph-name="epsilontonos" unicode="&#x3ad;" horiz-adv-x="1011" 
d="M636 603v-173q-104 -1 -147.5 -6.5t-73 -36.5t-29.5 -81q0 -128 151 -128q143 0 179 145l271 -42q-31 -127 -142.5 -214.5t-308.5 -87.5q-252 0 -358 91.5t-106 229.5q0 181 221 238q-122 51 -154 100.5t-32 111.5q0 125 103.5 203t295.5 78q397 0 462 -282l-266 -44
q-27 126 -160 126q-136 0 -136 -112q0 -58 46 -88t184 -28zM742 1516l76 -168l-440 -187l-50 112z" />
    <glyph glyph-name="etatonos" unicode="&#x3ae;" horiz-adv-x="1149" 
d="M1032 -341h-297v975q0 169 -130 169q-83 0 -133.5 -57t-50.5 -157v-589h-298v1010h275v-156q97 177 304 177q122 0 201.5 -52t104 -124.5t24.5 -228.5v-967zM797 1516l76 -168l-440 -187l-50 112z" />
    <glyph glyph-name="iotatonos" unicode="&#x3af;" horiz-adv-x="543" 
d="M419 1010v-1010h-298v1010h298zM448 1516l76 -168l-440 -187l-50 112z" />
    <glyph glyph-name="upsilondieresistonos" unicode="&#x3b0;" horiz-adv-x="1128" 
d="M413 1010v-557q0 -172 25 -223t126 -51q100 0 125.5 50.5t25.5 223.5v557h298v-557q0 -190 -44 -281.5t-138.5 -142t-257.5 -50.5q-226 0 -342 94.5t-116 379.5v557h298zM719 1798l117 -130l-287 -209l-80 87zM729 1191q-54 0 -86 35t-32 80q0 46 33.5 81.5t85.5 35.5
q48 0 84 -31t36 -85q0 -53 -35.5 -84.5t-85.5 -31.5zM395 1191q-54 0 -86 35t-32 80q0 46 33 81.5t85 35.5q47 0 84 -30.5t37 -85.5q0 -53 -35.5 -84.5t-85.5 -31.5z" />
    <glyph glyph-name="alpha" unicode="&#x3b1;" horiz-adv-x="1270" 
d="M1250 0h-330l-83 234q-125 -255 -343 -255q-192 0 -310.5 155.5t-118.5 378.5q0 231 126.5 374.5t332.5 143.5q212 0 325 -210l59 189h316l-196 -478zM775 512q-76 230 -122.5 274.5t-97.5 44.5q-75 0 -125.5 -86.5t-50.5 -238.5q0 -137 50 -232.5t127 -95.5q85 0 133 97
t86 237z" />
    <glyph glyph-name="beta" unicode="&#x3b2;" horiz-adv-x="1190" 
d="M131 -341v1220q0 189 40.5 290t139.5 159t274 58q243 0 353.5 -99t110.5 -232q0 -227 -263 -286q340 -70 340 -369q0 -176 -121 -298.5t-312 -122.5q-170 0 -264 138v-458h-298zM429 272q64 -93 170 -93q93 0 153 68.5t60 197.5q0 69 -28 124t-73 77t-134 22v168
q106 2 140 51t34 126q0 182 -167 182q-76 0 -115.5 -45.5t-39.5 -230.5v-647z" />
    <glyph glyph-name="gamma" unicode="&#x3b3;" horiz-adv-x="932" 
d="M312 -341v351l-332 1000h318l199 -650l226 650h242l-356 -1000v-351h-297z" />
    <glyph glyph-name="delta" unicode="&#x3b4;" horiz-adv-x="1156" 
d="M954 1365v-217h-386l128 -82q389 -252 389 -589q0 -229 -134.5 -365.5t-370.5 -136.5q-233 0 -370.5 133.5t-137.5 369.5q0 186 111.5 307t321.5 140l-313 244v196h762zM581 761q-89 0 -142 -61.5t-53 -232.5q0 -157 47.5 -224.5t145.5 -67.5q104 0 148 76.5t44 222.5
q0 148 -45 217.5t-145 69.5z" />
    <glyph glyph-name="epsilon" unicode="&#x3b5;" horiz-adv-x="1011" 
d="M636 603v-173q-104 -1 -147.5 -6.5t-73 -36.5t-29.5 -81q0 -128 151 -128q143 0 179 145l271 -42q-31 -127 -142.5 -214.5t-308.5 -87.5q-252 0 -358 91.5t-106 229.5q0 181 221 238q-122 51 -154 100.5t-32 111.5q0 125 103.5 203t295.5 78q397 0 462 -282l-266 -44
q-27 126 -160 126q-136 0 -136 -112q0 -58 46 -88t184 -28z" />
    <glyph glyph-name="zeta" unicode="&#x3b6;" horiz-adv-x="845" 
d="M134 1148v217h676v-190q-176 -103 -300 -305.5t-124 -415.5q0 -125 50 -172t169 -53q93 -5 135 -27.5t68.5 -75t26.5 -144.5q0 -141 -88 -331l-247 32q66 130 66 220q0 53 -30 72.5t-107 22.5q-357 15 -357 396q0 419 450 754h-388z" />
    <glyph glyph-name="eta" unicode="&#x3b7;" horiz-adv-x="1149" 
d="M1032 -341h-297v975q0 169 -130 169q-83 0 -133.5 -57t-50.5 -157v-589h-298v1010h275v-156q97 177 304 177q122 0 201.5 -52t104 -124.5t24.5 -228.5v-967z" />
    <glyph glyph-name="theta" unicode="&#x3b8;" horiz-adv-x="1156" 
d="M578 1386q247 0 375 -189.5t128 -514.5q0 -327 -128.5 -515t-374.5 -188t-374.5 187t-128.5 516t128.5 516.5t374.5 187.5zM381 795h394q-14 392 -195 392q-185 0 -199 -392zM381 617q1 -438 197 -438q191 0 197 438h-394z" />
    <glyph glyph-name="iota" unicode="&#x3b9;" horiz-adv-x="543" 
d="M421 1010v-1010h-298v1010h298z" />
    <glyph glyph-name="kappa" unicode="&#x3ba;" horiz-adv-x="1089" 
d="M754 671l352 -671h-315l-234 452l-136 -142v-310h-298v1010h298v-327q0 -23 -3 -86q44 57 84 100l289 313h277z" />
    <glyph glyph-name="lambda" unicode="&#x3bb;" horiz-adv-x="929" 
d="M-20 0l337 926l-162 439h307l492 -1365h-308l-221 644l-221 -644h-224z" />
    <glyph glyph-name="mu" unicode="&#x3bc;" horiz-adv-x="1161" 
d="M123 -341v1351h298v-528q0 -117 11.5 -173.5t51.5 -93t94 -36.5q79 0 121 60.5t42 242.5v528h297v-1010h-240l-6 152q-56 -173 -200 -173q-66 0 -117.5 43.5t-53.5 93.5v-457h-298z" />
    <glyph glyph-name="nu" unicode="&#x3bd;" horiz-adv-x="924" 
d="M917 1010l-346 -1010h-232l-346 1010h310l194 -640l199 640h221z" />
    <glyph glyph-name="xi" unicode="&#x3be;" horiz-adv-x="930" 
d="M605 -314q53 134 53 209q0 51 -34 71.5t-129 29.5q-260 24 -345 125t-85 241t74.5 222.5t232.5 136.5q-151 51 -193 102t-42 110q0 147 227 215h-252v217h774v-217h-142q-104 0 -159 -12.5t-94 -55.5t-39 -99q0 -168 243 -168h112v-214h-112q-119 0 -180 -14t-98.5 -60.5
t-37.5 -116.5q0 -61 27 -98t69 -50t159 -28q113 -14 168 -33t88.5 -69t33.5 -149q0 -126 -69 -331z" />
    <glyph glyph-name="omicron" unicode="&#x3bf;" horiz-adv-x="1096" 
d="M542 1031q231 0 360.5 -151t129.5 -378q0 -224 -134.5 -373.5t-357.5 -149.5q-216 0 -345.5 148t-129.5 380q0 161 58.5 273.5t160.5 181.5t258 69zM550 836q-85 0 -128 -65.5t-43 -260.5q0 -179 41 -257t128 -78q76 0 123 66.5t47 253.5q0 199 -41.5 270t-126.5 71z" />
    <glyph glyph-name="pi" unicode="&#x3c0;" horiz-adv-x="1197" 
d="M156 0v793h-119v217h1124v-217h-119v-793h-298v793h-291v-793h-297z" />
    <glyph glyph-name="rho" unicode="&#x3c1;" horiz-adv-x="1163" 
d="M108 -341v746q0 227 33.5 344t154 199.5t296.5 82.5q230 0 368 -147t138 -399q0 -229 -122 -367.5t-312 -138.5q-165 0 -258 119v-439h-298zM594 832q-92 0 -139.5 -69.5t-47.5 -257.5q0 -327 189 -327q188 0 188 332q0 180 -47.5 251t-142.5 71z" />
    <glyph glyph-name="sigma1" unicode="&#x3c2;" horiz-adv-x="1036" 
d="M667 -305q43 98 43 193q0 59 -27.5 78t-98.5 27q-163 19 -273 71t-178 168.5t-68 272.5q0 236 132 381t357 145q208 0 317 -104.5t129 -251.5l-272 -46q-18 203 -167 203q-81 0 -131.5 -64t-50.5 -194q0 -131 40 -202t104 -97.5t219 -51.5q130 -21 186 -76t56 -191
q0 -113 -60 -306z" />
    <glyph glyph-name="sigma" unicode="&#x3c3;" horiz-adv-x="1168" 
d="M1143 1010v-217h-214q100 -89 123.5 -167.5t23.5 -158.5q0 -212 -134.5 -352t-361.5 -140q-238 0 -376.5 137t-138.5 389q0 225 126.5 377.5t394.5 152.5q78 0 153 -21h404zM571 831q-88 0 -140 -68t-52 -259q0 -329 192 -329q191 0 191 333q0 186 -49.5 254.5
t-141.5 68.5z" />
    <glyph glyph-name="tau" unicode="&#x3c4;" horiz-adv-x="837" 
d="M271 0v793h-277v217h850v-217h-276v-793h-297z" />
    <glyph glyph-name="upsilon" unicode="&#x3c5;" horiz-adv-x="1128" 
d="M413 1010v-557q0 -172 25 -223t126 -51q100 0 125.5 50.5t25.5 223.5v557h298v-557q0 -190 -44 -281.5t-138.5 -142t-257.5 -50.5q-226 0 -342 94.5t-116 379.5v557h298z" />
    <glyph glyph-name="phi" unicode="&#x3c6;" horiz-adv-x="1467" 
d="M594 -341v317q-238 12 -380.5 155t-142.5 371q0 180 95 312t236 169l71 -218q-112 -93 -112 -261q0 -268 233 -324v843q75 8 146 8q357 0 507 -161t150 -371q0 -202 -134 -353t-400 -170v-317h-269zM863 178q234 55 234 333q0 267 -234 326v-659z" />
    <glyph glyph-name="chi" unicode="&#x3c7;" horiz-adv-x="1021" 
d="M343 391l-332 619h315l229 -443l203 443h261l-339 -662l368 -689h-315l-258 520l-246 -520h-269z" />
    <glyph glyph-name="psi" unicode="&#x3c8;" horiz-adv-x="1559" 
d="M640 -341v318q-203 2 -312 60t-160 151t-51 292v530h298v-537q0 -178 44 -229.5t181 -52.5v819h279v-819q136 0 181 51t45 231v537h298v-530q0 -192 -53.5 -295t-168 -153t-302.5 -55v-318h-279z" />
    <glyph glyph-name="omega" unicode="&#x3c9;" horiz-adv-x="1532" 
d="M902 756v-277q0 -188 24.5 -244.5t78.5 -56.5q63 0 106 61.5t43 207.5q0 260 -164 492l216 103q262 -239 262 -569q0 -254 -119 -374t-294 -120q-90 0 -156.5 33.5t-132.5 150.5q-65 -117 -131.5 -150.5t-154.5 -33.5q-185 0 -300 124.5t-115 359.5q0 340 261 579
l216 -103q-163 -232 -163 -492q0 -144 42.5 -206.5t106.5 -62.5q54 0 78.5 58t24.5 243v277h271z" />
    <glyph glyph-name="iotadieresis" unicode="&#x3ca;" horiz-adv-x="543" 
d="M421 1010v-1010h-298v1010h298zM437 1191q-54 0 -86 35t-32 80q0 46 33.5 81.5t85.5 35.5q48 0 84 -31t36 -85q0 -53 -35.5 -84.5t-85.5 -31.5zM103 1191q-54 0 -86 35t-32 80q0 46 33 81.5t85 35.5q47 0 84 -30.5t37 -85.5q0 -53 -35.5 -84.5t-85.5 -31.5z" />
    <glyph glyph-name="upsilondieresis" unicode="&#x3cb;" horiz-adv-x="1128" 
d="M413 1010v-557q0 -172 25 -223t126 -51q100 0 125.5 50.5t25.5 223.5v557h298v-557q0 -190 -44 -281.5t-138.5 -142t-257.5 -50.5q-226 0 -342 94.5t-116 379.5v557h298zM729 1191q-54 0 -86 35t-32 80q0 46 33.5 81.5t85.5 35.5q48 0 84 -31t36 -85q0 -53 -35.5 -84.5
t-85.5 -31.5zM395 1191q-54 0 -86 35t-32 80q0 46 33 81.5t85 35.5q47 0 84 -30.5t37 -85.5q0 -53 -35.5 -84.5t-85.5 -31.5z" />
    <glyph glyph-name="omicrontonos" unicode="&#x3cc;" horiz-adv-x="1096" 
d="M542 1031q231 0 360.5 -151t129.5 -378q0 -224 -134.5 -373.5t-357.5 -149.5q-216 0 -345.5 148t-129.5 380q0 161 58.5 273.5t160.5 181.5t258 69zM550 836q-85 0 -128 -65.5t-43 -260.5q0 -179 41 -257t128 -78q76 0 123 66.5t47 253.5q0 199 -41.5 270t-126.5 71z
M726 1516l76 -168l-440 -187l-50 112z" />
    <glyph glyph-name="upsilontonos" unicode="&#x3cd;" horiz-adv-x="1128" 
d="M413 1010v-557q0 -172 25 -223t126 -51q100 0 125.5 50.5t25.5 223.5v557h298v-557q0 -190 -44 -281.5t-138.5 -142t-257.5 -50.5q-226 0 -342 94.5t-116 379.5v557h298zM742 1516l76 -168l-440 -187l-50 112z" />
    <glyph glyph-name="omegatonos" unicode="&#x3ce;" horiz-adv-x="1532" 
d="M902 756v-277q0 -188 24.5 -244.5t78.5 -56.5q63 0 106 61.5t43 207.5q0 260 -164 492l216 103q262 -239 262 -569q0 -254 -119 -374t-294 -120q-90 0 -156.5 33.5t-132.5 150.5q-65 -117 -131.5 -150.5t-154.5 -33.5q-185 0 -300 124.5t-115 359.5q0 340 261 579
l216 -103q-163 -232 -163 -492q0 -144 42.5 -206.5t106.5 -62.5q54 0 78.5 58t24.5 243v277h271zM985 1516l76 -168l-440 -187l-50 112z" />
    <glyph glyph-name="afii10023" unicode="&#x401;" horiz-adv-x="1135" 
d="M1112 1105h-651v-280h512v-257h-512v-298h651v-270h-976v1365h976v-260zM793 1511q-54 0 -86 35t-32 80q0 46 33.5 81.5t85.5 35.5q48 0 84 -31t36 -85q0 -53 -35.5 -84.5t-85.5 -31.5zM459 1511q-54 0 -86 35t-32 80q0 46 33 81.5t85 35.5q47 0 84 -30.5t37 -85.5
q0 -53 -35.5 -84.5t-85.5 -31.5z" />
    <glyph glyph-name="afii10051" unicode="&#x402;" horiz-adv-x="1307" 
d="M201 0v1116h-217v249h995v-249h-464v-344q110 160 328 160q143 0 228.5 -52.5t117.5 -159.5t32 -426q0 -337 -48 -449t-147.5 -155t-276.5 -48l-14 222q73 7 108 28.5t53 87t18 295.5q0 274 -31.5 348t-147.5 74q-93 0 -156.5 -46t-63.5 -187v-464h-314z" />
    <glyph glyph-name="afii10052" unicode="&#x403;" horiz-adv-x="957" 
d="M137 0v1365h780v-270h-466v-1095h-314zM775 1840l76 -168l-440 -187l-50 112z" />
    <glyph glyph-name="afii10053" unicode="&#x404;" horiz-adv-x="1302" 
d="M872 812v-223h-480q0 -159 84 -254t218 -95q219 0 288 220l291 -55q-49 -169 -195.5 -297.5t-390.5 -128.5q-205 0 -345.5 99.5t-205 259.5t-64.5 344q0 321 160.5 512.5t448.5 191.5q408 0 558 -371l-284 -82q-71 192 -270 192q-146 0 -216.5 -97.5t-71.5 -215.5h475z
" />
    <glyph glyph-name="afii10054" unicode="&#x405;" horiz-adv-x="1189" 
d="M1080 1065l-272 -91q-55 162 -233 162q-190 0 -190 -123q0 -49 35.5 -83t160.5 -59q209 -42 306 -85t163.5 -138.5t66.5 -213.5q0 -185 -142.5 -320t-422.5 -135q-210 0 -357.5 95.5t-194.5 283.5l296 67q50 -191 278 -191q110 0 164 42.5t54 101.5q0 60 -49 93t-189 62
q-261 54 -372 147.5t-111 273.5q0 182 132.5 307t359.5 125q402 0 517 -321z" />
    <glyph glyph-name="afii10055" unicode="&#x406;" horiz-adv-x="593" 
d="M456 1365v-1365h-319v1365h319z" />
    <glyph glyph-name="afii10056" unicode="&#x407;" horiz-adv-x="597" 
d="M455 1365v-1365h-319v1365h319zM471 1512q-54 0 -86 35t-32 80q0 46 33.5 81.5t85.5 35.5q48 0 84 -31t36 -85q0 -53 -35.5 -84.5t-85.5 -31.5zM137 1512q-54 0 -86 35t-32 80q0 46 33 81.5t85 35.5q47 0 84 -30.5t37 -85.5q0 -53 -35.5 -84.5t-85.5 -31.5z" />
    <glyph glyph-name="afii10057" unicode="&#x408;" horiz-adv-x="780" 
d="M657 1365v-974q0 -208 -99.5 -310t-327.5 -102q-100 0 -216 21v265q95 -16 163 -16q60 0 94.5 21.5t50.5 52.5t16 108v934h319z" />
    <glyph glyph-name="afii10058" unicode="&#x409;" horiz-adv-x="1745" 
d="M905 864h288q203 0 301 -45t157.5 -145.5t59.5 -236.5q0 -186 -118 -311.5t-368 -125.5h-453l-236 1107h-14l-271 -1107h-281l357 1365h455zM1054 258h140q193 0 193 179t-188 179h-233z" />
    <glyph glyph-name="afii10059" unicode="&#x40a;" horiz-adv-x="1970" 
d="M1179 844h263q254 0 374 -110t120 -306q0 -199 -123 -313.5t-339 -114.5h-609v585h-414v-585h-314v1365h314v-532h414v532h314v-521zM1179 258h239q195 0 195 172q0 166 -195 166h-239v-338z" />
    <glyph glyph-name="afii10060" unicode="&#x40b;" horiz-adv-x="1327" 
d="M515 1116v-340q105 156 315 156q144 0 225.5 -55.5t119.5 -144t38 -266.5v-466h-314v501q0 119 -48 156.5t-124 37.5q-89 0 -150 -41.5t-62 -139.5v-514h-314v1116h-217v249h998v-249h-467z" />
    <glyph glyph-name="afii10061" unicode="&#x40c;" horiz-adv-x="1291" 
d="M451 1365v-642l428 642h306l-328 -487l410 -878h-353l-271 592l-192 -279v-313h-314v1365h314zM895 1841l76 -168l-440 -187l-50 112z" />
    <glyph glyph-name="afii10062" unicode="&#x40e;" horiz-adv-x="1105" 
d="M459 411l-498 954h343l299 -605l245 605h285l-417 -1010q-78 -191 -173 -273t-271 -82h-137v261h110q78 0 127 25.5t87 124.5zM273 1772h157q16 -131 160 -131q148 0 163 131h157q-17 -135 -102.5 -211t-220.5 -76q-127 0 -214.5 70.5t-99.5 216.5z" />
    <glyph glyph-name="afii10145" unicode="&#x40f;" horiz-adv-x="1296" 
d="M451 258h395v1107h314v-1365h-392l-8 -287h-227l-9 287h-387v1365h314v-1107z" />
    <glyph glyph-name="afii10017" unicode="&#x410;" horiz-adv-x="1245" 
d="M808 1365l427 -1365h-344l-83 281h-442l-86 -281h-280l437 1365h371zM443 533h290l-145 479z" />
    <glyph glyph-name="afii10018" unicode="&#x411;" horiz-adv-x="1266" 
d="M137 0v1365h914v-245h-600v-298h230q179 0 283.5 -34.5t170.5 -131.5t66 -239q0 -197 -120.5 -307t-336.5 -110h-607zM451 258h246q87 0 134 45.5t47 119.5q0 159 -207 159h-220v-324z" />
    <glyph glyph-name="afii10019" unicode="&#x412;" horiz-adv-x="1334" 
d="M137 1365h636q171 0 257 -42t142 -120t56 -190q0 -227 -246 -303q142 -32 213 -127t71 -207q0 -153 -116 -264.5t-377 -111.5h-636v1365zM456 1124v-299h242q133 0 167.5 52.5t34.5 100.5q0 52 -28.5 89.5t-62.5 47t-134 9.5h-219zM456 582v-329h246q126 0 178 44t52 123
q0 66 -50 114t-166 48h-260z" />
    <glyph glyph-name="afii10020" unicode="&#x413;" horiz-adv-x="916" 
d="M137 0v1365h780v-270h-466v-1095h-314z" />
    <glyph glyph-name="afii10021" unicode="&#x414;" horiz-adv-x="1262" 
d="M103 258l280 1107h493l283 -1107h132v-545h-207l-33 287h-842l-32 -287h-206v545h132zM380 258h438l-192 849h-54z" />
    <glyph glyph-name="afii10022" unicode="&#x415;" horiz-adv-x="1167" 
d="M1112 1105h-651v-280h512v-257h-512v-298h651v-270h-976v1365h976v-260z" />
    <glyph glyph-name="afii10024" unicode="&#x416;" horiz-adv-x="1768" 
d="M1341 775l502 -775h-336l-399 602l-72 -19v-583h-295v583l-73 19l-398 -602h-299l470 688l-432 677h328l352 -563l52 -13v576h295v-576l53 13l352 563h294z" />
    <glyph glyph-name="afii10025" unicode="&#x417;" horiz-adv-x="1201" 
d="M25 415l285 39q36 -214 259 -214q233 0 233 182q0 173 -195 173h-110v211h99q83 0 129.5 45t46.5 119t-58 114.5t-150 40.5q-108 0 -166 -40.5t-76 -145.5l-262 44q58 403 515 403q244 0 382.5 -101t138.5 -264q0 -213 -234 -293q274 -77 274 -316q0 -190 -147.5 -311.5
t-395.5 -121.5q-279 0 -419 121.5t-149 314.5z" />
    <glyph glyph-name="afii10026" unicode="&#x418;" horiz-adv-x="1366" 
d="M450 135v-135h-314v1365h314v-582q0 -150 -9 -303q78 175 153 282l321 461v142h314v-1365h-314v620q0 156 9 255q-65 -154 -154 -281z" />
    <glyph glyph-name="afii10027" unicode="&#x419;" horiz-adv-x="1370" 
d="M450 135v-135h-314v1365h314v-582q0 -150 -9 -303q78 175 153 282l321 461v142h314v-1365h-314v620q0 156 9 255q-65 -154 -154 -281zM243 1772h157q16 -131 160 -131q148 0 163 131h157q-17 -135 -102.5 -211t-220.5 -76q-127 0 -214.5 70.5t-99.5 216.5z" />
    <glyph glyph-name="afii10028" unicode="&#x41a;" horiz-adv-x="1291" 
d="M451 1365v-642l428 642h306l-328 -487l410 -878h-353l-271 592l-192 -279v-313h-314v1365h314z" />
    <glyph glyph-name="afii10029" unicode="&#x41b;" horiz-adv-x="1152" 
d="M251 0h-281l384 1365h428l390 -1365h-346l-287 1081z" />
    <glyph glyph-name="afii10030" unicode="&#x41c;" horiz-adv-x="1754" 
d="M740 0l-336 1113v-1113h-268v1365h498l239 -817l252 817h499v-1365h-322v1113l-343 -1113h-219z" />
    <glyph glyph-name="afii10031" unicode="&#x41d;" horiz-adv-x="1328" 
d="M1192 1365v-1365h-314v563h-427v-563h-314v1365h314v-532h427v532h314z" />
    <glyph glyph-name="afii10032" unicode="&#x41e;" horiz-adv-x="1309" 
d="M650 -21q-276 0 -427 207t-151 501q0 299 153 499t436 200q286 0 431.5 -213.5t145.5 -488.5q0 -297 -150 -501t-438 -204zM659 1125q-252 0 -252 -442q0 -443 252 -443q244 0 244 442q0 443 -244 443z" />
    <glyph glyph-name="afii10033" unicode="&#x41f;" horiz-adv-x="1288" 
d="M137 0v1365h1015v-1365h-314v1116h-387v-1116h-314z" />
    <glyph glyph-name="afii10034" unicode="&#x420;" horiz-adv-x="1236" 
d="M461 507v-507h-325v1365h538q180 0 275.5 -38.5t170.5 -137.5t75 -243q0 -101 -40 -197t-113 -151t-141.5 -73t-214.5 -18h-225zM450 755h208q119 0 167 55t48 126q0 83 -53.5 132t-162.5 49h-207v-362z" />
    <glyph glyph-name="afii10035" unicode="&#x421;" horiz-adv-x="1285" 
d="M1238 857l-335 -21q-7 289 -225 289q-250 0 -250 -445q0 -257 68 -348.5t190 -91.5q198 0 242 258l310 -19q-30 -245 -182.5 -372.5t-373.5 -127.5q-271 0 -440.5 187t-169.5 517q0 309 164 506t448 197q492 0 554 -529z" />
    <glyph glyph-name="afii10036" unicode="&#x422;" horiz-adv-x="1002" 
d="M1002 1365v-270h-338v-1095h-324v1095h-340v270h1002z" />
    <glyph glyph-name="afii10037" unicode="&#x423;" horiz-adv-x="1088" 
d="M459 411l-498 954h343l299 -605l245 605h285l-417 -1010q-78 -191 -173 -273t-271 -82h-137v261h110q78 0 127 25.5t87 124.5z" />
    <glyph glyph-name="afii10038" unicode="&#x424;" horiz-adv-x="1536" 
d="M636 127q-277 25 -419 171t-142 385t141.5 384.5t419.5 171.5v167h263v-167q280 -26 420.5 -172t140.5 -384q0 -239 -141 -384.5t-420 -171.5v-168h-263v168zM636 1011q-267 -66 -267 -328t267 -328v656zM899 355q268 66 268 328t-268 328v-656z" />
    <glyph glyph-name="afii10039" unicode="&#x425;" horiz-adv-x="1228" 
d="M1175 1365l-373 -634l422 -731h-370l-274 496l-274 -496h-303l422 726l-374 639h372l221 -415l232 415h299z" />
    <glyph glyph-name="afii10040" unicode="&#x426;" horiz-adv-x="1330" 
d="M147 0v1365h314v-1095h396v1095h314v-1095h167v-557h-213l-26 287h-952z" />
    <glyph glyph-name="afii10041" unicode="&#x427;" horiz-adv-x="1289" 
d="M838 0v531q-128 -120 -327 -120q-123 0 -222 55.5t-141 148t-42 244.5v506h314v-516q0 -101 40 -139t134 -38q131 0 244 73v620h314v-1365h-314z" />
    <glyph glyph-name="afii10042" unicode="&#x428;" horiz-adv-x="1968" 
d="M147 0v1365h314v-1095h366v1095h314v-1095h366v1095h314v-1365h-1674z" />
    <glyph glyph-name="afii10043" unicode="&#x429;" horiz-adv-x="1981" 
d="M147 0v1365h314v-1095h366v1095h314v-1095h366v1095h314v-1095h171v-557h-207l-33 287h-1605z" />
    <glyph glyph-name="afii10044" unicode="&#x42a;" horiz-adv-x="1373" 
d="M271 1095h-320v270h634v-501h234q202 0 300.5 -45t158 -145.5t59.5 -235.5q0 -187 -118.5 -312.5t-367.5 -125.5h-580v1095zM585 258h235q193 0 193 179t-188 179h-240v-358z" />
    <glyph glyph-name="afii10045" unicode="&#x42b;" horiz-adv-x="1813" 
d="M147 0v1365h314v-501h234q171 0 277 -35.5t173.5 -142.5t67.5 -247q0 -190 -119 -314.5t-367 -124.5h-580zM461 258h235q193 0 193 179t-188 179h-240v-358zM1352 0v1365h314v-1365h-314z" />
    <glyph glyph-name="afii10046" unicode="&#x42c;" horiz-adv-x="1239" 
d="M137 0v1365h314v-501h234q171 0 277 -35.5t173.5 -142.5t67.5 -247q0 -190 -119 -314.5t-367 -124.5h-580zM451 258h235q193 0 193 179t-188 179h-240v-358z" />
    <glyph glyph-name="afii10047" unicode="&#x42d;" horiz-adv-x="1302" 
d="M430 812v-223h480q0 -159 -84 -254t-218 -95q-219 0 -288 220l-291 -55q49 -169 195.5 -297.5t390.5 -128.5q205 0 345.5 99.5t205 259.5t64.5 344q0 321 -160.5 512.5t-448.5 191.5q-408 0 -558 -371l284 -82q71 192 270 192q146 0 216.5 -97.5t71.5 -215.5h-475z" />
    <glyph glyph-name="afii10048" unicode="&#x42e;" horiz-adv-x="1960" 
d="M671 580h-220v-580h-314v1365h314v-536h223q43 258 205 407.5t393 149.5q275 0 446 -192t171 -512q0 -289 -163 -496t-446 -207q-277 0 -435.5 180t-173.5 421zM1274 1125q-137 0 -209.5 -125t-72.5 -318q0 -211 77 -326.5t200 -115.5q132 0 208.5 128.5t76.5 326.5
t-75.5 314t-204.5 116z" />
    <glyph glyph-name="afii10049" unicode="&#x42f;" horiz-adv-x="1346" 
d="M888 541h-270l-224 -541h-339l292 603q-236 107 -236 353q0 153 104.5 281t394.5 128h600v-1365h-322v541zM888 1122h-189q-112 0 -153 -12t-73 -56.5t-32 -101.5q0 -59 36 -107t78.5 -59.5t136.5 -11.5h196v348z" />
    <glyph glyph-name="afii10065" unicode="&#x430;" horiz-adv-x="1109" 
d="M1005 0h-289q-14 60 -14 158q-76 -108 -151.5 -143.5t-171.5 -35.5q-142 0 -229.5 77t-87.5 207q0 95 51 175t164 125.5t412 67.5v58q0 147 -147 147q-157 0 -175 -147l-275 26q27 172 163 244t308 72q103 0 194 -24t142 -72t69 -101.5t18 -186.5v-458q0 -132 19 -189z
M689 484q-313 -31 -313 -189q0 -53 33 -91.5t94 -38.5q79 0 132.5 65.5t53.5 161.5v92z" />
    <glyph glyph-name="afii10066" unicode="&#x431;" horiz-adv-x="1143" 
d="M679 1456h295q-6 -74 -43.5 -124t-102 -78t-209.5 -58q-131 -28 -185.5 -83.5t-72.5 -169.5q97 54 133.5 66.5t114.5 12.5q206 0 335.5 -136t129.5 -370q0 -245 -136 -391t-367 -146q-161 0 -272.5 67.5t-169 188.5t-57.5 332q0 183 33 327.5t107 248t148 144t192 69.5
q78 20 100 37t27 63zM568 823q-95 0 -145 -71.5t-50 -253.5q0 -178 49.5 -248.5t145.5 -70.5q94 0 142.5 70t48.5 249q0 181 -48.5 253t-142.5 72z" />
    <glyph glyph-name="afii10067" unicode="&#x432;" horiz-adv-x="1123" 
d="M123 0v1010h578q102 0 168.5 -22t112 -85.5t45.5 -146.5q0 -175 -218 -227q251 -54 251 -256q0 -127 -87.5 -200t-246.5 -73h-603zM421 599h211q114 0 114 109q0 111 -114 111h-211v-220zM421 201h208q71 0 101.5 29t30.5 97q0 56 -25.5 91t-106.5 35h-208v-252z" />
    <glyph glyph-name="afii10068" unicode="&#x433;" horiz-adv-x="796" 
d="M123 0v1010h665v-217h-367v-793h-298z" />
    <glyph glyph-name="afii10069" unicode="&#x434;" horiz-adv-x="1053" 
d="M107 210l232 800h417l191 -800h123v-442h-185l-31 232h-656l-30 -232h-184v442h123zM330 210h315l-116 597h-40z" />
    <glyph glyph-name="afii10070" unicode="&#x435;" horiz-adv-x="1095" 
d="M1030 455h-650q-1 -27 -1 -47q0 -108 57.5 -163t137.5 -55q149 0 179 159l270 -20q-113 -350 -459 -350q-151 0 -256.5 60.5t-174 176.5t-68.5 278q0 241 137.5 389t353.5 148q195 0 334.5 -137.5t139.5 -438.5zM379 628h359q-14 208 -171 208q-168 0 -188 -208z" />
    <glyph glyph-name="afii10072" unicode="&#x436;" horiz-adv-x="1470" 
d="M1156 610l362 -610h-308l-255 438l-69 -20v-418h-298v418l-69 20l-261 -438h-283l351 531l-327 479h296l255 -375l38 -7v382h298v-382l38 7l255 375h294z" />
    <glyph glyph-name="afii10073" unicode="&#x437;" horiz-adv-x="1001" 
d="M373 430v173q156 0 193 35t37 82q0 50 -34.5 81t-97.5 31q-133 0 -159 -127l-267 44q67 282 450 282q204 0 305.5 -79.5t101.5 -201.5q0 -146 -187 -212q221 -52 221 -239q0 -144 -113.5 -232t-328.5 -88q-234 0 -338 95t-129 207l271 42q34 -150 170 -150q154 0 154 130
q0 49 -27 79.5t-70 39t-152 8.5z" />
    <glyph glyph-name="afii10074" unicode="&#x438;" horiz-adv-x="1164" 
d="M421 105v-105h-298v1010h298v-385q0 -102 -8 -227q76 130 133 209l198 274v129h298v-1010h-298v360q0 124 9 254q-54 -128 -125 -225z" />
    <glyph glyph-name="afii10075" unicode="&#x439;" horiz-adv-x="1164" 
d="M421 105v-105h-298v1010h298v-385q0 -102 -8 -227q76 130 133 209l198 274v129h298v-1010h-298v360q0 124 9 254q-54 -128 -125 -225zM264 1464h157q16 -131 160 -131q148 0 163 131h157q-17 -135 -102.5 -211t-220.5 -76q-127 0 -214.5 70.5t-99.5 216.5z" />
    <glyph glyph-name="afii10076" unicode="&#x43a;" horiz-adv-x="1083" 
d="M772 663l348 -663h-312l-235 451l-152 -161v-290h-298v1010h298v-252q0 -61 -4 -178q35 51 85 104l305 326h276z" />
    <glyph glyph-name="afii10077" unicode="&#x43b;" horiz-adv-x="933" 
d="M-24 0l337 1010h331l306 -1010h-308l-201 740l-241 -740h-224z" />
    <glyph glyph-name="afii10078" unicode="&#x43c;" horiz-adv-x="1529" 
d="M123 0v1010h431l220 -807l228 807h404v-1010h-272v806h-14l-229 -806h-296l-227 806h-14v-806h-231z" />
    <glyph glyph-name="afii10079" unicode="&#x43d;" horiz-adv-x="1151" 
d="M123 0v1010h298v-364h310v364h298v-1010h-298v429h-310v-429h-298z" />
    <glyph glyph-name="afii10080" unicode="&#x43e;" horiz-adv-x="1096" 
d="M542 1031q231 0 360.5 -151t129.5 -378q0 -224 -134.5 -373.5t-357.5 -149.5q-216 0 -345.5 148t-129.5 380q0 161 58.5 273.5t160.5 181.5t258 69zM550 836q-85 0 -128 -65.5t-43 -260.5q0 -179 41 -257t128 -78q76 0 123 66.5t47 253.5q0 199 -41.5 270t-126.5 71z" />
    <glyph glyph-name="afii10081" unicode="&#x43f;" horiz-adv-x="1113" 
d="M123 0v1010h867v-1010h-298v807h-271v-807h-298z" />
    <glyph glyph-name="afii10082" unicode="&#x440;" horiz-adv-x="1105" 
d="M123 -341v1351h274v-148q76 169 266 169q164 0 268.5 -131.5t104.5 -382.5q0 -267 -105.5 -402.5t-274.5 -135.5q-171 0 -244 133v-453h-289zM412 442q0 -107 13 -148t55 -73.5t91 -32.5q61 0 109 62.5t48 275.5q0 299 -158 299q-60 0 -109 -53t-49 -180v-150z" />
    <glyph glyph-name="afii10083" unicode="&#x441;" horiz-adv-x="1048" 
d="M1011 379q-17 -179 -141.5 -289.5t-321.5 -110.5q-214 0 -348.5 141.5t-134.5 378.5t137.5 384.5t367.5 147.5q185 0 306.5 -111t134.5 -278l-278 -16q-14 182 -158 182q-177 0 -177 -290q0 -193 49.5 -245t120.5 -52q138 0 165 175z" />
    <glyph glyph-name="afii10084" unicode="&#x442;" horiz-adv-x="806" 
d="M259 0v793h-279v217h847v-217h-271v-793h-297z" />
    <glyph glyph-name="afii10085" unicode="&#x443;" horiz-adv-x="912" 
d="M905 1010l-316 -969q-53 -162 -90.5 -234.5t-108 -116t-196.5 -43.5q-63 0 -143 12v229q79 -14 146 -14q88 0 118 33t45 93l-367 1010h315l194 -601l186 601h217z" />
    <glyph glyph-name="afii10086" unicode="&#x444;" horiz-adv-x="1452" 
d="M594 -341v331q-256 20 -389 156.5t-133 353.5q0 228 146.5 364t375.5 155v338h265v-338q228 -19 374.5 -155t146.5 -364q0 -217 -132.5 -353.5t-388.5 -156.5v-331h-265zM602 852q-230 -59 -230 -343q0 -285 230 -342v685zM850 167q230 57 230 342q0 284 -230 343v-685z
" />
    <glyph glyph-name="afii10087" unicode="&#x445;" horiz-adv-x="1011" 
d="M962 1010l-291 -467l340 -543h-340l-210 348l-206 -348h-255l333 543l-287 467h340l161 -273l160 273h255z" />
    <glyph glyph-name="afii10088" unicode="&#x446;" horiz-adv-x="1146" 
d="M123 0v1010h298v-793h291v793h297v-793h149v-449h-185l-30 232h-820z" />
    <glyph glyph-name="afii10089" unicode="&#x447;" horiz-adv-x="1085" 
d="M664 0v374q-116 -80 -261 -80q-160 0 -234.5 83t-74.5 219v414h298v-383q0 -82 30 -108t89 -26q86 0 153 47v470h298v-1010h-298z" />
    <glyph glyph-name="afii10090" unicode="&#x448;" horiz-adv-x="1688" 
d="M130 0v1010h298v-793h267v793h298v-793h268v793h297v-1010h-1428z" />
    <glyph glyph-name="afii10091" unicode="&#x449;" horiz-adv-x="1704" 
d="M131 0v1010h298v-793h267v793h298v-793h268v793h297v-793h157v-449h-185l-30 232h-1370z" />
    <glyph glyph-name="afii10092" unicode="&#x44a;" horiz-adv-x="1146" 
d="M217 0v793h-266v217h564v-358h232q185 0 271.5 -92.5t86.5 -233.5q0 -167 -97 -246.5t-261 -79.5h-530zM515 201h178q73 0 105 28t32 102q0 130 -137 130h-178v-260z" />
    <glyph glyph-name="afii10093" unicode="&#x44b;" horiz-adv-x="1567" 
d="M130 0v1010h298v-358h232q184 0 271 -92.5t87 -233.5q0 -167 -96.5 -246.5t-261.5 -79.5h-530zM428 201h178q74 0 105.5 28.5t31.5 101.5q0 130 -137 130h-178v-260zM1140 0v1010h298v-1010h-298z" />
    <glyph glyph-name="afii10094" unicode="&#x44c;" horiz-adv-x="1052" 
d="M123 0v1010h298v-358h232q184 0 271 -92.5t87 -233.5q0 -167 -96.5 -246.5t-261.5 -79.5h-530zM421 201h178q74 0 105.5 28.5t31.5 101.5q0 130 -137 130h-178v-260z" />
    <glyph glyph-name="afii10095" unicode="&#x44d;" horiz-adv-x="1067" 
d="M293 419v190h391q0 104 -50.5 163t-143.5 59q-143 0 -174 -129l-277 46q111 283 449 283q236 0 375.5 -144t139.5 -385q0 -227 -133 -375t-395 -148q-341 0 -450 296l274 44q40 -141 188 -141q92 0 145 58.5t53 153.5q0 11 -1 29h-391z" />
    <glyph glyph-name="afii10096" unicode="&#x44e;" horiz-adv-x="1672" 
d="M421 419v-419h-298v1010h298v-385h167q35 186 172 296t331 110q236 0 376 -146t140 -378q0 -238 -144.5 -383t-369.5 -145q-215 0 -348.5 122.5t-157.5 317.5h-166zM1093 831q-103 0 -155 -74.5t-52 -253.5q0 -178 51.5 -251t155.5 -73q103 0 151.5 74.5t48.5 245.5
q0 183 -50 257.5t-150 74.5z" />
    <glyph glyph-name="afii10097" unicode="&#x44f;" horiz-adv-x="1097" 
d="M676 0v388h-197l-172 -388h-281l230 449q-176 68 -176 249q0 148 91 230t246 82h557v-1010h-298zM682 582v237h-197q-122 0 -122 -126q0 -111 116 -111h203z" />
    <glyph glyph-name="afii10071" unicode="&#x451;" horiz-adv-x="1095" 
d="M1030 455h-650q-1 -27 -1 -47q0 -108 57.5 -163t137.5 -55q149 0 179 159l270 -20q-113 -350 -459 -350q-151 0 -256.5 60.5t-174 176.5t-68.5 278q0 241 137.5 389t353.5 148q195 0 334.5 -137.5t139.5 -438.5zM379 628h359q-14 208 -171 208q-168 0 -188 -208z
M733 1191q-54 0 -86 35t-32 80q0 46 33.5 81.5t85.5 35.5q48 0 84 -31t36 -85q0 -53 -35.5 -84.5t-85.5 -31.5zM399 1191q-54 0 -86 35t-32 80q0 46 33 81.5t85 35.5q47 0 84 -30.5t37 -85.5q0 -53 -35.5 -84.5t-85.5 -31.5z" />
    <glyph glyph-name="afii10099" unicode="&#x452;" horiz-adv-x="1124" 
d="M128 0v1109h-168v169h168v108h288v-108h398v-169h-398v-280q100 162 290 162q133 0 209 -66t95 -181.5t19 -439.5q0 -275 -20.5 -391.5t-105 -188t-246.5 -71.5q-22 0 -53 1l-19 206q94 0 127 72.5t33 357.5q0 307 -27 386t-119 79q-78 0 -130 -62t-52 -173v-520h-289z
" />
    <glyph glyph-name="afii10100" unicode="&#x453;" horiz-adv-x="796" 
d="M123 0v1010h665v-217h-367v-793h-298zM644 1516l76 -168l-440 -187l-50 112z" />
    <glyph glyph-name="afii10101" unicode="&#x454;" horiz-adv-x="1069" 
d="M775 419v190h-391q0 104 50.5 163t143.5 59q143 0 174 -129l277 46q-111 283 -449 283q-236 0 -375.5 -144t-139.5 -385q0 -227 133 -375t395 -148q341 0 450 296l-274 44q-40 -141 -188 -141q-92 0 -145 58.5t-53 153.5q0 11 1 29h391z" />
    <glyph glyph-name="afii10102" unicode="&#x455;" horiz-adv-x="969" 
d="M879 766l-217 -58q-38 137 -197 137q-150 0 -150 -91q0 -36 27.5 -57.5t143.5 -36.5q173 -23 256 -53t131.5 -101t48.5 -175q0 -156 -118.5 -254t-331.5 -98q-386 0 -461 299l251 37q31 -136 224 -136q74 0 125 26.5t51 71.5q0 70 -113 83q-306 38 -402.5 117.5
t-96.5 221.5q0 144 112 238t314 94q160 0 256 -63t147 -202z" />
    <glyph glyph-name="afii10103" unicode="&#x456;" horiz-adv-x="537" 
d="M421 1010v-1010h-298v1010h298zM421 1393v-298h-298v298h298z" />
    <glyph glyph-name="afii10104" unicode="&#x457;" horiz-adv-x="543" 
d="M424 1010v-1010h-298v1010h298zM458 1192q-54 0 -86 35t-32 80q0 46 33.5 81.5t85.5 35.5q48 0 84 -31t36 -85q0 -53 -35.5 -84.5t-85.5 -31.5zM124 1192q-54 0 -86 35t-32 80q0 46 33 81.5t85 35.5q47 0 84 -30.5t37 -85.5q0 -53 -35.5 -84.5t-85.5 -31.5z" />
    <glyph glyph-name="afii10105" unicode="&#x458;" horiz-adv-x="550" 
d="M427 1010v-955q0 -80 -2 -146.5t-36 -134.5t-107.5 -103.5t-180.5 -35.5q-61 0 -163 17v234q47 -5 69 -5q60 0 87.5 35.5t27.5 138.5v955h305zM427 1393v-301h-305v301h305z" />
    <glyph glyph-name="afii10106" unicode="&#x459;" horiz-adv-x="1425" 
d="M732 652h301q184 0 270.5 -92t86.5 -234q0 -168 -97 -247t-260 -79h-447l-146 740l-241 -740h-224l337 1010h331zM844 201h142q126 0 126 129q0 131 -126 131h-207z" />
    <glyph glyph-name="afii10107" unicode="&#x45a;" horiz-adv-x="1652" 
d="M1012 642h242q119 0 182.5 -22.5t119 -103.5t55.5 -195q0 -160 -96 -240.5t-261 -80.5h-539v429h-294v-429h-298v1010h298v-364h294v364h297v-368zM1012 201h195q126 0 126 128q0 124 -126 124h-195v-252z" />
    <glyph glyph-name="afii10108" unicode="&#x45b;" horiz-adv-x="1138" 
d="M128 1278v108h297v-108h385v-169h-385v-280q106 162 292 162q89 0 157 -32t104.5 -84t48.5 -98.5t12 -175.5v-601h-297v566q0 105 -30.5 147t-98.5 42q-79 0 -133.5 -62t-54.5 -173v-520h-297v1109h-168v169h168z" />
    <glyph glyph-name="afii10109" unicode="&#x45c;" horiz-adv-x="1083" 
d="M772 663l348 -663h-312l-235 451l-152 -161v-290h-298v1010h298v-252q0 -61 -4 -178q35 51 85 104l305 326h276zM827 1417l-136 -162l-262 -28l145 166z" />
    <glyph glyph-name="afii10110" unicode="&#x45e;" horiz-adv-x="912" 
d="M905 1010l-316 -969q-53 -162 -90.5 -234.5t-108 -116t-196.5 -43.5q-63 0 -143 12v229q79 -14 146 -14q88 0 118 33t45 93l-367 1010h315l194 -601l186 601h217zM185 1464h157q16 -131 160 -131q148 0 163 131h157q-17 -135 -102.5 -211t-220.5 -76q-127 0 -214.5 70.5
t-99.5 216.5z" />
    <glyph glyph-name="afii10193" unicode="&#x45f;" horiz-adv-x="1133" 
d="M123 0v1010h298v-797h291v797h298v-1010h-325l-26 -232h-184l-26 232h-326z" />
    <glyph glyph-name="afii10050" unicode="&#x490;" horiz-adv-x="957" 
d="M957 1621v-526h-507v-1095h-314v1365h582v256h239z" />
    <glyph glyph-name="afii10098" unicode="&#x491;" horiz-adv-x="796" 
d="M574 1010v230h214v-447h-367v-793h-298v1010h451z" />
    <glyph glyph-name="Wgrave" unicode="&#x1e80;" horiz-adv-x="1788" 
d="M1775 1365l-344 -1365h-313l-225 903l-216 -903h-312l-351 1365h326l188 -833q1 -6 11 -44q4 -14 11 -42l223 919h295l230 -919q7 26 20 86l194 833h263zM757 1832l414 -243l-50 -112l-440 187z" />
    <glyph glyph-name="wgrave" unicode="&#x1e81;" horiz-adv-x="1477" 
d="M1459 1010l-304 -1010h-263l-160 650l-159 -650h-251l-311 1010h311l164 -617l154 617h270l148 -621l171 621h230zM600 1516l414 -243l-50 -112l-440 187z" />
    <glyph glyph-name="Wacute" unicode="&#x1e82;" horiz-adv-x="1788" 
d="M1775 1365l-344 -1365h-313l-225 903l-216 -903h-312l-351 1365h326l188 -833q1 -6 11 -44q4 -14 11 -42l223 919h295l230 -919q7 26 20 86l194 833h263zM1087 1844l76 -168l-440 -187l-50 112z" />
    <glyph glyph-name="wacute" unicode="&#x1e83;" horiz-adv-x="1477" 
d="M1459 1010l-304 -1010h-263l-160 650l-159 -650h-251l-311 1010h311l164 -617l154 617h270l148 -621l171 621h230zM938 1516l76 -168l-440 -187l-50 112z" />
    <glyph glyph-name="Wdieresis" unicode="&#x1e84;" horiz-adv-x="1788" 
d="M1775 1365l-344 -1365h-313l-225 903l-216 -903h-312l-351 1365h326l188 -833q1 -6 11 -44q4 -14 11 -42l223 919h295l230 -919q7 26 20 86l194 833h263zM1085 1515q-54 0 -86 35t-32 80q0 46 33.5 81.5t85.5 35.5q48 0 84 -31t36 -85q0 -53 -35.5 -84.5t-85.5 -31.5z
M751 1515q-54 0 -86 35t-32 80q0 46 33 81.5t85 35.5q47 0 84 -30.5t37 -85.5q0 -53 -35.5 -84.5t-85.5 -31.5z" />
    <glyph glyph-name="wdieresis" unicode="&#x1e85;" horiz-adv-x="1477" 
d="M1459 1010l-304 -1010h-263l-160 650l-159 -650h-251l-311 1010h311l164 -617l154 617h270l148 -621l171 621h230zM941 1191q-54 0 -86 35t-32 80q0 46 33.5 81.5t85.5 35.5q48 0 84 -31t36 -85q0 -53 -35.5 -84.5t-85.5 -31.5zM607 1191q-54 0 -86 35t-32 80
q0 46 33 81.5t85 35.5q47 0 84 -30.5t37 -85.5q0 -53 -35.5 -84.5t-85.5 -31.5z" />
    <glyph glyph-name="Ygrave" unicode="&#x1ef2;" horiz-adv-x="1068" 
d="M1123 1365l-429 -790v-575h-320v575l-429 790h371l261 -518l259 518h287zM397 1836l414 -243l-50 -112l-440 187z" />
    <glyph glyph-name="ygrave" unicode="&#x1ef3;" horiz-adv-x="912" 
d="M905 1010l-316 -969q-53 -162 -90.5 -234.5t-108 -116t-196.5 -43.5q-63 0 -143 12v229q79 -14 146 -14q88 0 118 33t45 93l-367 1010h315l194 -601l186 601h217zM335 1516l414 -243l-50 -112l-440 187z" />
    <glyph glyph-name="afii00208" unicode="&#x2015;" horiz-adv-x="1365" 
d="M-41 628h1447v-218h-1447v218z" />
    <glyph glyph-name="underscoredbl" unicode="&#x2017;" horiz-adv-x="1024" 
d="M0 -99h1024v-159h-1024v159zM0 -339h1024v-159h-1024v159z" />
    <glyph glyph-name="quotereversed" unicode="&#x201b;" horiz-adv-x="527" 
d="M409 808h-111l-180 308v249h291v-285h-139z" />
    <glyph glyph-name="minute" unicode="&#x2032;" horiz-adv-x="397" 
d="M211 797h-171l156 568h242z" />
    <glyph glyph-name="second" unicode="&#x2033;" horiz-adv-x="759" 
d="M211 797h-171l156 568h242zM600 797h-170l155 568h242z" />
    <glyph glyph-name="exclamdbl" unicode="&#x203c;" horiz-adv-x="1024" 
d="M395 1365v-363l-79 -581h-141l-79 577v367h299zM928 1365v-363l-79 -581h-142l-79 577v367h300zM401 301v-301h-311v301h311zM934 301v-301h-311v301h311z" />
    <glyph glyph-name="uni203E" unicode="&#x203e;" horiz-adv-x="1147" 
d="M-42 1869h1231v-74h-1231v74z" />
    <glyph glyph-name="uni2044" unicode="&#x2044;" horiz-adv-x="218" 
d="M-348 0l756 1365h159l-757 -1365h-158z" />
    <glyph glyph-name="nsuperior" unicode="&#x207f;" horiz-adv-x="738" 
d="M652 546h-206v342q0 75 -13.5 102t-53.5 27q-87 0 -87 -129v-342h-206v610h194l2 -70l79 70q14 12 74 12q101 0 159 -45.5t58 -186.5v-390z" />
    <glyph glyph-name="lira" unicode="&#x20a4;" horiz-adv-x="1202" 
d="M111 471v156h190q-5 35 -20 117h-170v156h147q-2 42 -2 73q0 206 121.5 309.5t309.5 103.5q301 0 395 -259l-256 -102q-32 131 -136 131q-49 0 -88.5 -36t-39.5 -122q0 -33 9 -98h234v-156h-211q9 -69 10 -117h201v-156h-214q-28 -119 -143 -216h205q177 0 232 191
l277 -83q-96 -363 -497 -363h-651v255h89q94 0 150.5 57.5t60.5 158.5h-203z" />
    <glyph glyph-name="peseta" unicode="&#x20a7;" horiz-adv-x="2215" 
d="M461 507v-507h-314v1365h459q175 0 269 -38.5t167.5 -137.5t73.5 -243q0 -101 -38.5 -196.5t-110.5 -151t-138 -73.5t-212 -18h-156zM450 755h140q119 0 167 55t48 126q0 83 -53.5 132t-162.5 49h-139v-362zM1400 459v-245q0 -48 13 -60t65 -12q17 0 66 2v-143
q-92 -14 -128 -14q-114 0 -168 42.5t-54 158.5v271h-99v151h110l15 175l180 13v-188h135v-151h-135zM2151 461l-155 -39l-2 5q-26 72 -113 72q-82 0 -82 -47q0 -24 19.5 -33t76.5 -16q163 -20 221.5 -63.5t58.5 -137.5q0 -95 -77.5 -154.5t-208.5 -59.5q-258 0 -302 188
l177 25q17 -82 130 -82q99 0 99 52q0 36 -60 42q-194 20 -257 71.5t-63 134.5q0 88 73 145.5t204 57.5q200 0 261 -161z" />
    <glyph glyph-name="afii61248" unicode="&#x2105;" horiz-adv-x="1876" 
d="M755 958q-12 -124 -100.5 -198t-227.5 -74q-156 0 -249.5 96t-93.5 251q0 158 97 256.5t261 98.5q131 0 217.5 -74.5t95.5 -189.5l-203 -11q-9 120 -107 120q-120 0 -120 -187q0 -125 33 -158.5t82 -33.5q97 0 112 115zM485 0l757 1365h158l-757 -1365h-158zM1445 679
q164 0 255 -101.5t91 -251.5q0 -149 -95 -249t-253 -100q-153 0 -245 99t-92 254q0 152 91.5 250.5t247.5 98.5zM1450 542q-58 0 -87 -41.5t-29 -169.5q0 -115 27 -166t88 -51q114 0 114 208q0 120 -25.5 170t-87.5 50z" />
    <glyph glyph-name="afii61289" unicode="&#x2113;" horiz-adv-x="1201" 
d="M652 542q-56 -290 -56 -363q0 -64 31 -64q36 0 81 96q20 42 47 42q38 0 38 -45q0 -81 -68.5 -160.5t-161.5 -79.5q-76 0 -121 64.5t-45 235.5q0 35 3 91q-52 -55 -68 -55q-13 0 -26.5 16t-13.5 41q0 26 27 57q68 76 97 112q61 353 166.5 603t264.5 250q78 0 122 -55
t44 -140q0 -286 -361 -646zM682 729q90 100 147.5 224t57.5 220q0 73 -36 73q-76 0 -169 -517z" />
    <glyph glyph-name="afii61352" unicode="&#x2116;" horiz-adv-x="2048" 
d="M1187 1365v-1365h-273l-535 922q1 -35 2 -46q4 -35 4 -59v-817h-249v1365h345l465 -805q-6 60 -6 91v714h247zM1640 1038q164 0 247 -100t83 -235q0 -142 -90.5 -236.5t-240.5 -94.5q-145 0 -233 93.5t-88 240.5q0 145 87 238.5t235 93.5zM1645 893q-51 0 -73 -40
t-22 -145q0 -191 94 -191t94 184q0 98 -19.5 145t-73.5 47zM1337 217h618v-217h-618v217z" />
    <glyph glyph-name="estimated" unicode="&#x212e;" horiz-adv-x="1229" 
d="M308 531v-371q120 -121 298 -121q254 0 395 246l72 -43q-118 -170 -231.5 -223t-235.5 -53q-232 0 -380.5 158.5t-148.5 406.5q0 252 149.5 408.5t379.5 156.5q214 0 366 -142t163 -423h-827zM904 605v297q-124 121 -300 121q-175 0 -296 -122v-296h596z" />
    <glyph glyph-name="oneeighth" unicode="&#x215b;" horiz-adv-x="1802" 
d="M17 1031v181q231 62 299 166h158v-671h215v-161h-667v161h238v442q-143 -80 -243 -118zM420 0l756 1365h159l-757 -1365h-158zM1620 442q151 -61 151 -199q0 -111 -94.5 -183t-272.5 -72q-165 0 -252.5 66.5t-87.5 169.5q0 127 147 181q-117 63 -117 182q0 101 86 172.5
t240 71.5q148 0 234.5 -62t86.5 -157q0 -114 -121 -170zM1468 502q81 23 81 95q0 99 -135 99q-111 0 -111 -80q0 -33 28 -56.5t137 -57.5zM1364 336q-102 -28 -102 -104q0 -101 153 -101q145 0 145 80q0 32 -27.5 57.5t-168.5 67.5z" />
    <glyph glyph-name="threeeighths" unicode="&#x215c;" horiz-adv-x="1802" 
d="M259 1046h99q128 0 128 89q0 35 -29.5 63t-81.5 28q-103 0 -129 -105l-194 29q23 100 111.5 164t217.5 64q135 0 227 -60t92 -164q0 -128 -133 -178q159 -46 159 -193q0 -109 -91.5 -179t-253.5 -70q-156 0 -246.5 73.5t-108.5 184.5l199 26q25 -126 151 -126
q58 0 93.5 27.5t35.5 74.5q0 51 -33.5 74.5t-125.5 23.5h-87v154zM444 0l756 1365h159l-757 -1365h-158zM1620 442q151 -61 151 -199q0 -111 -94.5 -183t-272.5 -72q-165 0 -252.5 66.5t-87.5 169.5q0 127 147 181q-117 63 -117 182q0 101 86 172.5t240 71.5
q148 0 234.5 -62t86.5 -157q0 -114 -121 -170zM1468 502q81 23 81 95q0 99 -135 99q-111 0 -111 -80q0 -33 28 -56.5t137 -57.5zM1364 336q-102 -28 -102 -104q0 -101 153 -101q145 0 145 80q0 32 -27.5 57.5t-168.5 67.5z" />
    <glyph glyph-name="fiveeighths" unicode="&#x215d;" horiz-adv-x="1802" 
d="M660 1187h-382l-12 -156q67 60 179 60q124 0 206.5 -75.5t82.5 -189.5q0 -127 -90.5 -209.5t-255.5 -82.5q-285 0 -353 241l205 29q25 -108 142 -108q61 0 97 35t36 82q0 48 -38 84t-93 36q-80 0 -123 -64l-177 27l35 469h565zM436 0l756 1365h159l-757 -1365h-158z
M1596 442q151 -61 151 -199q0 -111 -94.5 -183t-272.5 -72q-165 0 -252.5 66.5t-87.5 169.5q0 127 147 181q-117 63 -117 182q0 101 86 172.5t240 71.5q148 0 234.5 -62t86.5 -157q0 -114 -121 -170zM1444 502q81 23 81 95q0 99 -135 99q-111 0 -111 -80q0 -33 28 -56.5
t137 -57.5zM1340 336q-102 -28 -102 -104q0 -101 153 -101q145 0 145 80q0 32 -27.5 57.5t-168.5 67.5z" />
    <glyph glyph-name="seveneighths" unicode="&#x215e;" horiz-adv-x="1802" 
d="M696 1365v-153q-112 -116 -180 -276.5t-68 -323.5q0 -23 3 -66h-248q2 125 32.5 230t102 220.5t150.5 188.5h-433l17 180h624zM348 0l756 1365h159l-757 -1365h-158zM1592 442q151 -61 151 -199q0 -111 -94.5 -183t-272.5 -72q-165 0 -252.5 66.5t-87.5 169.5
q0 127 147 181q-117 63 -117 182q0 101 86 172.5t240 71.5q148 0 234.5 -62t86.5 -157q0 -114 -121 -170zM1440 502q81 23 81 95q0 99 -135 99q-111 0 -111 -80q0 -33 28 -56.5t137 -57.5zM1336 336q-102 -28 -102 -104q0 -101 153 -101q145 0 145 80q0 32 -27.5 57.5
t-168.5 67.5z" />
    <glyph glyph-name="arrowleft" unicode="&#x2190;" horiz-adv-x="2048" 
d="M492 876h76q-81 -170 -195 -309h1595v-101h-1595q102 -102 198 -309h-78q-223 253 -414 341v45q177 71 413 333z" />
    <glyph glyph-name="arrowup" unicode="&#x2191;" horiz-adv-x="1024" 
d="M153 926q262 237 333 413h46q87 -191 340 -414v-77q-207 95 -309 197v-1474h-101v1474q-139 -114 -309 -195v76z" />
    <glyph glyph-name="arrowright" unicode="&#x2192;" horiz-adv-x="2048" 
d="M1555 876q237 -262 413 -333v-45q-191 -88 -414 -341h-77q95 207 197 309h-1595v101h1595q-114 139 -195 309h76z" />
    <glyph glyph-name="arrowdown" unicode="&#x2193;" horiz-adv-x="1024" 
d="M153 -16v76q170 -81 309 -195v1474h101v-1474q102 102 309 197v-77q-253 -223 -340 -414h-46q-71 176 -333 413z" />
    <glyph glyph-name="arrowboth" unicode="&#x2194;" horiz-adv-x="2048" 
d="M1968 540v-45q-181 -79 -406 -337h-80q69 172 194 311h-1305q125 -139 194 -311h-80q-224 258 -406 337v45q182 79 406 338h80q-69 -172 -194 -311h1305q-125 139 -194 311h80q225 -259 406 -338z" />
    <glyph glyph-name="arrowupdn" unicode="&#x2195;" horiz-adv-x="1024" 
d="M489 1463h45q79 -182 337 -407v-80q-171 69 -311 195v-1306q140 126 311 194v-79q-258 -225 -337 -407h-45q-79 182 -337 407v79q171 -68 311 -194v1306q-140 -126 -311 -195v80q258 225 337 407z" />
    <glyph glyph-name="arrowupdnbse" unicode="&#x21a8;" horiz-adv-x="1024" 
d="M489 1463h45q79 -182 337 -407v-80q-171 69 -311 195v-1306q140 126 311 194v-79q-258 -225 -337 -407h-45q-79 182 -337 407v79q171 -68 311 -194v1306q-140 -126 -311 -195v80q258 225 337 407zM154 -522h717v-98h-717v98z" />
    <glyph glyph-name="orthogonal" unicode="&#x221f;" horiz-adv-x="2005" 
d="M362 1279h100v-1179h1181v-100h-1281v1279z" />
    <glyph glyph-name="intersection" unicode="&#x2229;" horiz-adv-x="1472" 
d="M302 0h-110v473q0 265 13 373t76 210t188 171.5t267 69.5q144 0 268.5 -70t186 -167.5t76 -206.5t14.5 -380v-473h-109v480q0 232 -12 333t-60 182.5t-149.5 138.5t-214.5 57q-114 0 -215.5 -58t-148 -137t-58.5 -181.5t-12 -334.5v-480z" />
    <glyph glyph-name="equivalence" unicode="&#x2261;" horiz-adv-x="1365" 
d="M203 1147h1072v-89h-1072v89zM203 683h1072v-88h-1072v88zM203 220h1072v-89h-1072v89z" />
    <glyph glyph-name="house" unicode="&#x2302;" horiz-adv-x="1229" 
d="M153 0v634l461 519l462 -519v-634h-923zM234 81h761v519l-381 427l-380 -427v-519z" />
    <glyph glyph-name="revlogicalnot" unicode="&#x2310;" horiz-adv-x="1201" 
d="M438 0h-281v554h887v-253h-606v-301z" />
    <glyph glyph-name="integraltp" unicode="&#x2320;" horiz-adv-x="1237" 
d="M691 -515h-145v1811q0 219 89.5 330t202.5 111q67 0 102.5 -32.5t35.5 -76.5q0 -40 -25.5 -66t-62.5 -26q-30 0 -57 15q-18 10 -41.5 46.5t-46.5 36.5q-17 0 -31 -12q-10 -8 -14 -27q-7 -33 -7 -139v-1971z" />
    <glyph glyph-name="integralbt" unicode="&#x2321;" horiz-adv-x="1237" 
d="M546 1737h145v-1811q0 -219 -89.5 -330t-202.5 -111q-67 0 -102.5 32.5t-35.5 76.5q0 40 25.5 66t61.5 26q31 0 59 -16q18 -10 41 -46t46 -36q17 0 31 11q10 8 14 29q7 32 7 138v1971z" />
    <glyph glyph-name="SF100000" unicode="&#x2500;" 
d="M1473 534h-1496v175h1496v-175z" />
    <glyph glyph-name="SF110000" unicode="&#x2502;" 
d="M638 -621v2485h175v-2485h-175z" />
    <glyph glyph-name="SF010000" unicode="&#x250c;" 
d="M1474 709v-175h-661v-1155h-175v1330h836z" />
    <glyph glyph-name="SF030000" unicode="&#x2510;" 
d="M637 534h-660v175h835v-1330h-175v1155z" />
    <glyph glyph-name="SF020000" unicode="&#x2514;" 
d="M638 534v1330h175v-1155h661v-175h-836z" />
    <glyph glyph-name="SF040000" unicode="&#x2518;" 
d="M812 534h-835v175h660v1155h175v-1330z" />
    <glyph glyph-name="SF080000" unicode="&#x251c;" 
d="M638 -621v2485h175v-1155h661v-175h-661v-1155h-175z" />
    <glyph glyph-name="SF090000" unicode="&#x2524;" 
d="M637 -621v1155h-660v175h660v1155h175v-2485h-175z" />
    <glyph glyph-name="SF060000" unicode="&#x252c;" 
d="M637 534h-660v175h1496v-175h-661v-1155h-175v1155z" />
    <glyph glyph-name="SF070000" unicode="&#x2534;" 
d="M1473 534h-1496v175h660v1155h175v-1155h661v-175z" />
    <glyph glyph-name="SF050000" unicode="&#x253c;" 
d="M637 534h-660v175h660v1155h175v-1155h661v-175h-661v-1155h-175v1155z" />
    <glyph glyph-name="SF430000" unicode="&#x2550;" 
d="M1473 724h-1496v175h1496v-175zM1473 344h-1496v175h1496v-175z" />
    <glyph glyph-name="SF240000" unicode="&#x2551;" 
d="M829 -621v2485h175v-2485h-175zM448 -621v2485h175v-2485h-175z" />
    <glyph glyph-name="SF510000" unicode="&#x2552;" 
d="M638 -621v1520h836v-175h-661v-205h661v-175h-661v-965h-175z" />
    <glyph glyph-name="SF520000" unicode="&#x2553;" 
d="M448 -621v1330h1027v-175h-471v-1155h-175v1155h-206v-1155h-175z" />
    <glyph glyph-name="SF390000" unicode="&#x2554;" 
d="M623 -621h-175v1520h1026v-175h-851v-1345zM1004 344v-965h-175v1140h645v-175h-470z" />
    <glyph glyph-name="SF220000" unicode="&#x2555;" 
d="M637 344h-660v175h660v205h-660v175h835v-1520h-175v965z" />
    <glyph glyph-name="SF210000" unicode="&#x2556;" 
d="M448 -621v1155h-471v175h1026v-1330h-175v1155h-206v-1155h-174z" />
    <glyph glyph-name="SF250000" unicode="&#x2557;" 
d="M828 -621v1345h-851v175h1026v-1520h-175zM447 344h-470v175h645v-1140h-175v965z" />
    <glyph glyph-name="SF500000" unicode="&#x2558;" 
d="M638 344v1520h175v-965h661v-175h-661v-205h661v-175h-836z" />
    <glyph glyph-name="SF490000" unicode="&#x2559;" 
d="M1475 534h-1027v1330h175v-1155h206v1155h175v-1155h471v-175z" />
    <glyph glyph-name="SF380000" unicode="&#x255a;" 
d="M623 1864v-1345h850v-175h-1025v1520h175zM1004 899h470v-175h-645v1140h175v-965z" />
    <glyph glyph-name="SF280000" unicode="&#x255b;" 
d="M812 344h-835v175h660v205h-660v175h660v965h175v-1520z" />
    <glyph glyph-name="SF270000" unicode="&#x255c;" 
d="M1003 534h-1026v175h470v1155h175v-1155h206v1155h175v-1330z" />
    <glyph glyph-name="SF260000" unicode="&#x255d;" 
d="M828 1864h175v-1520h-1026v175h851v1345zM447 899v965h175v-1140h-645v175h470z" />
    <glyph glyph-name="SF360000" unicode="&#x255e;" 
d="M638 -621v2485h175v-965h661v-175h-661v-205h661v-175h-661v-965h-175z" />
    <glyph glyph-name="SF370000" unicode="&#x255f;" 
d="M829 -621v2485h175v-1155h470v-175h-470v-1155h-175zM448 -621v2485h175v-2485h-175z" />
    <glyph glyph-name="SF420000" unicode="&#x2560;" 
d="M448 -621v2485h175v-2485h-175zM829 724v1140h175v-965h470v-175h-645zM829 -621v1140h645v-175h-470v-965h-175z" />
    <glyph glyph-name="SF190000" unicode="&#x2561;" 
d="M637 344h-660v175h660v205h-660v175h660v965h175v-2485h-175v965z" />
    <glyph glyph-name="SF200000" unicode="&#x2562;" 
d="M447 -621l1 1155h-471v175h470v1155h175v-2485h-175zM828 -621v2485h175v-2485h-175z" />
    <glyph glyph-name="SF230000" unicode="&#x2563;" 
d="M828 -621v2485h175v-2485h-175zM622 1864v-1140h-645v175h470v965h175zM447 344h-470v175h645v-1140h-175v965z" />
    <glyph glyph-name="SF470000" unicode="&#x2564;" 
d="M1473 724h-1496v175h1496v-175zM637 344h-660v175h1496v-175h-661v-965h-175v965z" />
    <glyph glyph-name="SF480000" unicode="&#x2565;" 
d="M447 -621v1155h-470v175h1496v-175h-470v-1155h-175v1155h-206v-1155h-175z" />
    <glyph glyph-name="SF410000" unicode="&#x2566;" 
d="M1473 724h-1496v175h1496v-175zM447 344h-470v175h645v-1140h-175v965zM828 -621v1140h645v-175h-470v-965h-175z" />
    <glyph glyph-name="SF450000" unicode="&#x2567;" 
d="M1473 724h-1496v175h660v965h175v-965h661v-175zM1473 344h-1496v175h1496v-175z" />
    <glyph glyph-name="SF460000" unicode="&#x2568;" 
d="M1473 534h-1496v175h470v1155h175v-1155h206v1155h175v-1155h470v-175z" />
    <glyph glyph-name="SF400000" unicode="&#x2569;" 
d="M622 724h-645v175h470v965h175v-1140zM1473 724h-645v1140h175v-965h470v-175zM1473 344h-1496v175h1496v-175z" />
    <glyph glyph-name="SF540000" unicode="&#x256a;" 
d="M637 344h-660v175h660v205h-660v175h660v965h175v-965h661v-175h-661v-205h661v-175h-661v-965h-175v965z" />
    <glyph glyph-name="SF530000" unicode="&#x256b;" 
d="M447 -621v1155h-470v175h470v1155h175v-1155h206v1155h175v-1155h470v-175h-470v-1155h-175v1155h-206v-1155h-175z" />
    <glyph glyph-name="SF440000" unicode="&#x256c;" 
d="M1003 899h470v-175h-645v1140h175v-965zM447 899v965h175v-1140h-645v175h470zM447 344h-470v175h645v-1140h-175v965zM1003 344v-965h-175v1140h645v-175h-470z" />
    <glyph glyph-name="upblock" unicode="&#x2580;" 
d="M1473 621h-1496v1243h1496v-1243z" />
    <glyph glyph-name="dnblock" unicode="&#x2584;" 
d="M1473 -621h-1496v1242h1496v-1242z" />
    <glyph glyph-name="block" unicode="&#x2588;" 
d="M-23 -621v2485h1496v-2485h-1496z" />
    <glyph glyph-name="lfblock" unicode="&#x258c;" 
d="M-23 -621v2485h748v-2485h-748z" />
    <glyph glyph-name="rtblock" unicode="&#x2590;" 
d="M726 -621v2485h748v-2485h-748z" />
    <glyph glyph-name="ltshade" unicode="&#x2591;" 
d="M0 1864h121v-125h-121v125zM482 1864h121v-125h-121v125zM965 1864h121v-125h-121v125zM241 1615h121v-125h-121v125zM723 1615h121v-125h-121v125zM1206 1615h121v-125h-121v125zM965 1366h121v-125h-121v125zM482 1366h121v-125h-121v125zM0 1366h121v-125h-121v125z
M1206 1117h121v-125h-121v125zM723 1117h121v-125h-121v125zM241 1117h121v-125h-121v125zM0 867h121v-125h-121v125zM482 867h121v-125h-121v125zM965 867h121v-125h-121v125zM1206 618h121v-125h-121v125zM723 618h121v-125h-121v125zM241 618h121v-125h-121v125zM0 369
h121v-125h-121v125zM482 369h121v-125h-121v125zM965 369h121v-125h-121v125zM241 120h121v-125h-121v125zM723 120h121v-125h-121v125zM1206 120h121v-125h-121v125zM965 -130h121v-125h-121v125zM482 -130h121v-125h-121v125zM0 -130h121v-125h-121v125zM241 -379h121
v-125h-121v125zM723 -379h121v-125h-121v125zM1206 -379h121v-125h-121v125z" />
    <glyph glyph-name="shade" unicode="&#x2592;" 
d="M121 1864h120v-125h-120v125zM362 1864h120v-125h-120v125zM603 1864h121v-125h-121v125zM844 1864h121v-125h-121v125zM1086 1864h120v-125h-120v125zM1327 1864h120v-125h-120v125zM0 1615h121v-125h-121v125zM241 1615h121v-125h-121v125zM482 1615h121v-125h-121v125
zM724 1615h120v-125h-120v125zM965 1615h121v-125h-121v125zM1206 1615h121v-125h-121v125zM121 1366h120v-125h-120v125zM362 1366h120v-125h-120v125zM603 1366h121v-125h-121v125zM844 1366h121v-125h-121v125zM1086 1366h120v-125h-120v125zM1327 1366h120v-125h-120
v125zM241 1116h121v-124h-121v124zM482 1116h121v-124h-121v124zM724 1116h120v-124h-120v124zM965 1116h121v-124h-121v124zM1206 1116h121v-124h-121v124zM0 1116h121v-124h-121v124zM121 867h120v-125h-120v125zM362 867h120v-125h-120v125zM603 867h121v-125h-121v125z
M844 867h121v-125h-121v125zM1086 867h120v-125h-120v125zM1327 867h120v-125h-120v125zM0 618h121v-125h-121v125zM482 618h121v-125h-121v125zM724 618h120v-125h-120v125zM965 618h121v-125h-121v125zM1206 618h121v-125h-121v125zM241 618h121v-125h-121v125zM1327 369
h120v-125h-120v125zM1086 369h120v-125h-120v125zM844 369h121v-125h-121v125zM603 369h121v-125h-121v125zM362 369h120v-125h-120v125zM121 369h120v-125h-120v125zM0 119h121v-124h-121v124zM241 119h121v-124h-121v124zM482 119h121v-124h-121v124zM724 119h120v-124
h-120v124zM965 119h121v-124h-121v124zM1206 119h121v-124h-121v124zM1327 -130h120v-125h-120v125zM1086 -130h120v-125h-120v125zM844 -130h121v-125h-121v125zM603 -130h121v-125h-121v125zM362 -130h120v-125h-120v125zM121 -130h120v-125h-120v125zM0 -379h121v-125
h-121v125zM241 -379h121v-125h-121v125zM482 -379h121v-125h-121v125zM724 -379h120v-125h-120v125zM965 -380l121 1v-125h-121v124zM1206 -379h121v-125h-121v125z" />
    <glyph glyph-name="dkshade" unicode="&#x2593;" 
d="M1447 1490v-374h-120v-124h120v-374h-120v-125h120v-374h-120v-124h120v-374h-120v-125h120v-124h-1447v373h121v125h-121v374h121v125h-121v373h121v125h-121v374h121v125h-121v373h121v125h120v-125h121v125h120v-125h121v125h121v-125h120v125h121v-125h121v125h120
v-125h121v125h120v-249h-120v-125h120zM121 1615v-125h120v125h-120zM362 1615v-125h120v125h-120zM603 1615v-125h121v125h-121zM844 1615v-125h121v125h-121zM1086 1615v-125h120v125h-120zM1327 1366h-121v-125h121v125zM1086 1366h-121v-125h121v125zM844 1366h-120
v-125h120v125zM603 1366h-121v-125h121v125zM362 1366h-121v-125h121v125zM121 1116v-124h120v124h-120zM362 1116v-124h120v124h-120zM603 1116v-124h121v124h-121zM844 1116v-124h121v124h-121zM1086 1116v-124h120v124h-120zM362 867h-121v-125h121v125zM482 867v-125
h121v125h-121zM724 867v-125h120v125h-120zM965 867v-125h121v125h-121zM1206 867v-125h121v125h-121zM121 618v-125h120v125h-120zM603 618v-125h121v125h-121zM482 493v125h-120v-125h120zM844 618v-125h121v125h-121zM1086 618v-125h120v125h-120zM1327 244v125h-121
v-125h121zM1086 244v125h-121v-125h121zM844 244v125h-120v-125h120zM603 244v125h-121v-125h121zM362 244v125h-121v-125h121zM121 119v-124h120v124h-120zM362 119v-124h120v124h-120zM603 119v-124h121v124h-121zM844 119v-124h121v124h-121zM1086 119v-124h120v124h-120
zM1327 -255v125h-121v-125h121zM1086 -255v125h-121v-125h121zM844 -255v125h-120v-125h120zM603 -255v125h-121v-125h121zM362 -255v125h-121v-125h121zM121 -379v-125h120v125h-120zM362 -379v-125h120v125h-120zM603 -379v-125h121v125h-121zM844 -379v-125h121v125h-121
zM1086 -379v-125h120v125h-120z" />
    <glyph glyph-name="filledbox" unicode="&#x25a0;" horiz-adv-x="1237" 
d="M146 944h944v-944h-944v944z" />
    <glyph glyph-name="H22073" unicode="&#x25a1;" horiz-adv-x="1237" 
d="M146 944h944v-944h-944v944zM222 868v-792h792v792h-792z" />
    <glyph glyph-name="H18543" unicode="&#x25aa;" horiz-adv-x="727" 
d="M635 948v-543h-543v543h543z" />
    <glyph glyph-name="H18551" unicode="&#x25ab;" horiz-adv-x="727" 
d="M635 948v-543h-543v543h543zM559 872h-391v-391h391v391z" />
    <glyph glyph-name="filledrect" unicode="&#x25ac;" horiz-adv-x="2048" 
d="M0 703h2047v-386h-2047v386z" />
    <glyph glyph-name="triagup" unicode="&#x25b2;" horiz-adv-x="2027" 
d="M304 0l710 1419l710 -1419h-1420z" />
    <glyph glyph-name="triagrt" unicode="&#x25ba;" horiz-adv-x="2027" 
d="M288 1417l1451 -724l-1451 -724v1448z" />
    <glyph glyph-name="triagdn" unicode="&#x25bc;" horiz-adv-x="2027" 
d="M1724 1388l-710 -1419l-710 1419h1420z" />
    <glyph glyph-name="triaglf" unicode="&#x25c4;" horiz-adv-x="2027" 
d="M1739 1417v-1448l-1451 724z" />
    <glyph glyph-name="circle" unicode="&#x25cb;" horiz-adv-x="1237" 
d="M619 1018q110 0 216 -57t165 -163t59 -220q0 -183 -129 -312t-311 -129q-183 0 -312 129t-129 312q0 115 59 220.5t165 162.5t217 57zM619 942q-93 0 -180 -47t-136 -135t-49 -182q0 -151 107 -258t258 -107t257.5 107t106.5 258q0 94 -49 182t-136 135t-179 47z" />
    <glyph glyph-name="H18533" unicode="&#x25cf;" horiz-adv-x="1237" 
d="M1059 578q0 -182 -129.5 -311.5t-310.5 -129.5q-183 0 -312 129t-129 312q0 182 129.5 311t311.5 129q181 0 310.5 -129.5t129.5 -310.5z" />
    <glyph glyph-name="invbullet" unicode="&#x25d8;" horiz-adv-x="1237" 
d="M128 0v980h980v-980h-980zM618 692q-84 0 -143 -59t-59 -143q0 -83 59.5 -142.5t142.5 -59.5q84 0 143 59.5t59 142.5q0 84 -59 143t-143 59z" />
    <glyph glyph-name="invcircle" unicode="&#x25d9;" horiz-adv-x="1237" 
d="M42 0v1155h1155v-1155h-1155zM619 1018q-111 0 -216.5 -57t-164.5 -163t-59 -221q0 -182 129 -311t311 -129q183 0 312 129t129 311q0 115 -59 221t-164.5 163t-217.5 57zM620 942q91 0 178.5 -47t136.5 -134.5t49 -183.5q0 -151 -106.5 -257.5t-257.5 -106.5
q-152 0 -258.5 106.5t-106.5 257.5q0 96 49 183.5t136.5 134.5t179.5 47z" />
    <glyph glyph-name="openbullet" unicode="&#x25e6;" horiz-adv-x="727" 
d="M649 676q0 -118 -83.5 -202t-201.5 -84t-202 84t-84 202t84 202t202 84t201.5 -84t83.5 -202zM574 676q0 87 -62 148.5t-148 61.5t-148 -61.5t-62 -148.5q0 -86 61.5 -148t148.5 -62t148.5 62t61.5 148z" />
    <glyph glyph-name="smileface" unicode="&#x263a;" horiz-adv-x="2048" 
d="M1024 1156q160 0 313 -82.5t239 -236t86 -319.5q0 -165 -84.5 -316.5t-236.5 -236t-317 -84.5q-166 0 -317.5 84.5t-236 236t-84.5 316.5q0 166 85.5 319.5t238.5 236t314 82.5zM1024 1063q-137 0 -267.5 -70.5t-204 -201.5t-73.5 -273q0 -141 72 -270.5t202 -201.5
t271 -72t271 72t202 201.5t72 270.5q0 142 -73.5 273t-204 201.5t-267.5 70.5zM779 731q34 0 57.5 -23.5t23.5 -57.5q0 -33 -23.5 -57t-57.5 -24q-33 0 -57 24t-24 57q0 34 24 57.5t57 23.5zM1268 731q34 0 57.5 -23.5t23.5 -57.5q0 -33 -23.5 -57t-57.5 -24q-33 0 -57 24
t-24 57q0 34 23.5 57.5t57.5 23.5zM730 313l62 36q79 -144 232 -144t231 144l63 -36q-50 -95 -123.5 -145t-170.5 -50q-98 0 -171 50t-123 145z" />
    <glyph glyph-name="invsmileface" unicode="&#x263b;" horiz-adv-x="2048" 
d="M1024 1156q160 0 313 -82.5t239 -236t86 -319.5q0 -165 -84.5 -316.5t-236.5 -236t-317 -84.5q-166 0 -317.5 84.5t-236 236t-84.5 316.5q0 166 85.5 319.5t238.5 236t314 82.5zM779 731q-33 0 -57 -23.5t-24 -57.5q0 -33 24 -57t57 -24q34 0 57.5 24t23.5 57
q0 34 -23.5 57.5t-57.5 23.5zM1268 731q-34 0 -57.5 -23.5t-23.5 -57.5q0 -33 24 -57t57 -24q34 0 57.5 24t23.5 57q0 34 -23.5 57.5t-57.5 23.5zM730 313q50 -95 123 -145t171 -50q97 0 170.5 50t123.5 145l-63 36q-78 -144 -231 -144t-232 144z" />
    <glyph glyph-name="sun" unicode="&#x263c;" horiz-adv-x="1877" 
d="M902 1621h76v-337q102 -7 181.5 -38.5t167.5 -102.5l290 284l52 -53l-286 -286q73 -95 103 -169q38 -96 41 -185h335v-69h-335q-19 -193 -143 -351l285 -291l-57 -50l-283 282q-98 -72 -171 -100.5t-180 -40.5v-337h-76v337q-112 15 -188.5 46t-156.5 92l-294 -278
l-51 51l285 286q-66 84 -100 166t-45 188h-336v69h336q9 106 42 185.5t102 163.5l-284 287l48 57l292 -282q101 70 179.5 100.5t170.5 38.5v337zM937 1211q-129 0 -252 -66t-191.5 -189.5t-68.5 -256.5t67.5 -255t189.5 -190t255 -68t255 68t190 190t68 255t-69 256.5
t-192 189.5t-252 66z" />
    <glyph glyph-name="female" unicode="&#x2640;" horiz-adv-x="1536" 
d="M796 461v-402h459v-59h-459v-439h-59v439h-460v59h460v402q-103 0 -225.5 65.5t-195 191t-72.5 265.5q0 136 69.5 261t193.5 194t261 69q136 0 260.5 -69.5t193.5 -194t69 -260.5q0 -209 -143.5 -360.5t-351.5 -161.5zM767 1451q-118 0 -230.5 -60.5t-175.5 -173.5
t-63 -235q0 -195 137.5 -332.5t331.5 -137.5q195 0 332.5 137.5t137.5 332.5q0 122 -63 235t-175.5 173.5t-231.5 60.5z" />
    <glyph glyph-name="male" unicode="&#x2642;" horiz-adv-x="1536" 
d="M1216 1620l36 -16l163 -666l-57 -15l-142 581l-358 -768q148 -75 224 -202t76 -272q0 -136 -69 -260.5t-193.5 -194t-261.5 -69.5q-136 0 -260.5 69.5t-193.5 194t-69 260.5q0 217 153.5 370t372.5 153q78 0 166 -27l360 771l-537 -265l-24 53zM634 731
q-118 0 -230.5 -60.5t-175.5 -173.5t-63 -235q0 -195 137.5 -332.5t331.5 -137.5q195 0 332.5 137.5t137.5 332.5q0 122 -63 235t-175.5 173.5t-231.5 60.5z" />
    <glyph glyph-name="spade" unicode="&#x2660;" horiz-adv-x="1344" 
d="M673 1231q26 -108 80 -193t192.5 -210.5t175.5 -193t37 -136.5q0 -95 -64 -159t-154 -64q-82 0 -154 57q-54 42 -101 133q1 -147 38.5 -233.5t119.5 -136t219 -58.5l7 -37h-792l7 37q184 0 285.5 107.5t97.5 320.5q-45 -95 -111.5 -142.5t-149.5 -47.5q-90 0 -155 65
t-65 154q0 74 32 133q45 83 146.5 166t149.5 137q74 83 107.5 148t51.5 153z" />
    <glyph glyph-name="club" unicode="&#x2663;" horiz-adv-x="1344" 
d="M1098 0h-848l8 34q165 35 219 69q81 51 132.5 151t51.5 210q0 16 -1 47q-61 -124 -148.5 -181t-178.5 -57q-116 0 -197 81t-81 199q0 116 74 195.5t165 81.5q63 -2 166 -53q-42 69 -54.5 105t-12.5 77q0 115 79 193.5t198 78.5q117 0 197.5 -78.5t80.5 -189.5
q0 -88 -69 -186q84 40 101 45q27 8 61 8q100 0 173.5 -78.5t73.5 -194.5q0 -120 -80.5 -201.5t-196.5 -82.5q-77 4 -134.5 33t-107.5 80q-35 37 -87 125q4 -159 48.5 -251.5t136.5 -153.5q62 -41 223 -72z" />
    <glyph glyph-name="heart" unicode="&#x2665;" horiz-adv-x="1344" 
d="M674 -24q-31 118 -88.5 221.5t-222.5 321.5q-121 160 -149 203q-46 70 -66.5 128.5t-20.5 118.5q0 111 74 186t180 76q113 -1 194 -79q61 -58 99 -173q32 112 92 171q83 81 191 81q109 0 184.5 -74t75.5 -176q0 -91 -43.5 -188t-170.5 -257q-164 -207 -239 -340
q-59 -105 -90 -220z" />
    <glyph glyph-name="diamond" unicode="&#x2666;" horiz-adv-x="1344" 
d="M671 1234q88 -154 218 -327q150 -200 242 -303q-74 -78 -242 -302q-136 -182 -218 -326q-27 52 -74 121q-81 120 -201 279q-26 35 -183 228q101 115 260 328q118 158 198 302z" />
    <glyph glyph-name="musicalnote" unicode="&#x266a;" horiz-adv-x="1024" 
d="M486 1363h38q172 0 227 -14q79 -20 139 -77q45 -42 71 -118.5t26 -178.5v-103h-99v43q0 68 -28.5 115.5t-84.5 72.5q-73 32 -162 32h-28v-835q0 -121 -32 -188.5t-110 -108t-170 -40.5q-109 0 -172.5 61.5t-63.5 161.5q0 105 76 176.5t199 71.5q78 0 174 -46v975z" />
    <glyph glyph-name="musicalnotedbl" unicode="&#x266b;" horiz-adv-x="1536" 
d="M534 1271l796 248v-1108q0 -124 -31.5 -187t-107 -104t-170.5 -41q-109 0 -174 62.5t-65 161.5q0 100 77 172.5t199 72.5q40 0 70.5 -7t99.5 -36v724l-595 -185v-836q0 -121 -32 -188.5t-110 -107.5t-170 -40q-109 0 -172.5 61.5t-63.5 160.5q0 105 76 176.5t199 71.5
q78 0 174 -46v975z" />
    <glyph glyph-name="uniF001" unicode="&#xf001;" horiz-adv-x="1149" 
d="M434 778v-778h-290v778h-117v232h117q2 156 22.5 227.5t105.5 127t231 55.5q60 0 138 -11v-230q-64 5 -106 5q-61 0 -81 -32t-20 -104v-38h183v-232h-183zM1025 1010v-1010h-298v1010h298zM1025 1393v-298h-298v298h298z" />
    <glyph glyph-name="uniF002" unicode="&#xf002;" horiz-adv-x="1149" 
d="M434 778v-778h-290v778h-117v232h117q2 156 22.5 227.5t105.5 127t231 55.5q60 0 138 -11v-230q-64 5 -106 5q-61 0 -81 -32t-20 -104v-38h183v-232h-183zM727 0v1365h298v-1365h-298z" />
    <glyph glyph-name="uniF003" unicode="&#xf003;" horiz-adv-x="792" 
d="M640 1378v-491h123v-154h-123v-187h-208v187h-393v150l356 495h245zM204 878h235v337z" />
    <glyph glyph-name="uniF004" unicode="&#xf004;" horiz-adv-x="1024" 
d="M710 1365l-183 -403h-105l55 403h233z" />
    <glyph glyph-name="uniF005" unicode="&#xf005;" horiz-adv-x="1024" 
d="M642 -109l-182 -384h-105l55 384h232z" />
    <glyph glyph-name="uniF007" unicode="&#xf007;" horiz-adv-x="792" 
d="M660 1187h-382l-12 -156q67 60 179 60q124 0 206.5 -75.5t82.5 -189.5q0 -127 -90.5 -209.5t-255.5 -82.5q-285 0 -353 241l205 29q25 -108 142 -108q61 0 97 35t36 82q0 48 -38 84t-93 36q-80 0 -123 -64l-177 27l35 469h565z" />
    <glyph glyph-name="uniF008" unicode="&#xf008;" horiz-adv-x="792" 
d="M696 1365v-153q-112 -116 -180 -276.5t-68 -323.5q0 -23 3 -66h-248q2 125 32.5 230t102 220.5t150.5 188.5h-433l17 180h624z" />
    <glyph glyph-name="uniF009" unicode="&#xf009;" horiz-adv-x="792" 
d="M596 990q151 -61 151 -199q0 -111 -94.5 -183t-272.5 -72q-165 0 -252.5 66.5t-87.5 169.5q0 127 147 181q-117 63 -117 182q0 101 86 172.5t240 71.5q148 0 234.5 -62t86.5 -157q0 -114 -121 -170zM444 1050q81 23 81 95q0 99 -135 99q-111 0 -111 -80q0 -33 28 -56.5
t137 -57.5zM340 884q-102 -28 -102 -104q0 -101 153 -101q145 0 145 80q0 32 -27.5 57.5t-168.5 67.5z" />
    <glyph glyph-name="currency" unicode="&#xa4;" horiz-adv-x="1365" 
d="M63 273l205 205q-94 133 -94 284q0 153 94 284l-208 208l127 127l208 -207q134 94 294 94q147 0 280 -92l205 204l127 -126l-205 -205q97 -141 97 -287q0 -149 -94 -282l207 -207l-125 -127l-207 206q-136 -96 -291 -96q-147 0 -289 95l-206 -204zM967 762
q0 117 -82.5 201t-201.5 84q-116 0 -199.5 -83.5t-83.5 -201.5t83.5 -201.5t199.5 -83.5q117 0 200.5 83.5t83.5 201.5z" />
    </font>
</defs>
</svg>
