<?xml version="1.0" standalone="no"?>
<!DOCTYPE svg PUBLIC "-//W3C//DTD SVG 1.1//EN" "http://www.w3.org/Graphics/SVG/1.1/DTD/svg11.dtd" >
<svg>
<metadata>
Created by FontForge 20090622 at Wed Jul  8 13:08:30 2020
 By deploy user
 ITC Franklin Gothic is a trademark of The International Typeface Corporation which may be registered in certain jurisdictions. Portions copyright Microsoft Corporation.  All rights reserved.
</metadata>
<defs>
<font id="FranklinGothic-MediumCond" horiz-adv-x="942" >
  <font-face 
    font-family="Franklin Gothic Medium Cond"
    font-weight="400"
    font-stretch="condensed"
    units-per-em="2048"
    panose-1="2 11 6 6 3 4 2 2 2 4"
    ascent="1638"
    descent="-410"
    x-height="1010"
    cap-height="1365"
    bbox="-525 -628 2047 2025"
    underline-thickness="102"
    underline-position="-103"
    unicode-range="U+0020-U+FB02"
  />
<missing-glyph horiz-adv-x="2048" 
d="M256 0v1536h1536v-1536h-1536zM384 128h1280v1280h-1280v-1280z" />
    <glyph glyph-name=".notdef" horiz-adv-x="2048" 
d="M256 0v1536h1536v-1536h-1536zM384 128h1280v1280h-1280v-1280z" />
    <glyph glyph-name=".null" horiz-adv-x="0" 
 />
    <glyph glyph-name="nonmarkingreturn" horiz-adv-x="382" 
 />
    <glyph glyph-name="space" unicode=" " horiz-adv-x="382" 
 />
    <glyph glyph-name="exclam" unicode="!" horiz-adv-x="698" 
d="M211 1365h277l-70 -997h-137zM235 251h228v-251h-228v251z" />
    <glyph glyph-name="quotedbl" unicode="&#x22;" horiz-adv-x="1047" 
d="M261 1365h210l-32 -560h-145zM575 1365h210l-32 -560h-146z" />
    <glyph glyph-name="numbersign" unicode="#" horiz-adv-x="1046" 
d="M374 1365h147l-66 -396h227l66 396h147l-66 -396h198l-23 -139h-198l-45 -264h198l-23 -140h-198l-71 -426h-148l72 426h-227l-72 -426h-147l72 426h-198l23 140h198l45 264h-198l22 139h198zM432 830l-45 -264h227l45 264h-227z" />
    <glyph glyph-name="dollar" unicode="$" horiz-adv-x="1046" 
d="M467 1475h125v-135q260 -26 333 -276l-161 -67q-33 89 -70 126t-109 56v-376q205 -55 286.5 -148t81.5 -232q0 -153 -92.5 -260.5t-268.5 -124.5v-174h-125v174q-297 33 -374 330l179 61q43 -191 201 -221v407q-330 91 -330 365q0 129 80 234t244 126v135zM472 1176
q-137 -35 -137 -170q0 -127 137 -169v339zM585 206q174 26 174 188q0 148 -174 188v-376z" />
    <glyph glyph-name="percent" unicode="%" horiz-adv-x="1395" 
d="M624 1024q0 -169 -73.5 -261t-194.5 -92t-195 91t-74 262q0 169 73.5 261t195.5 92q120 0 194 -90.5t74 -262.5zM465 1024q0 228 -109 228q-110 0 -110 -228q0 -227 109 -227q110 0 110 227zM965 1365h135l-666 -1365h-135zM1308 341q0 -169 -73.5 -261t-195.5 -92
q-121 0 -194.5 92t-73.5 261q0 170 74 261.5t194 91.5q121 0 195 -92t74 -261zM1149 341q0 228 -110 228q-109 0 -109 -233q0 -222 109 -222q110 0 110 227z" />
    <glyph glyph-name="ampersand" unicode="&#x26;" horiz-adv-x="1291" 
d="M1032 762l169 -36q-50 -276 -184 -466q74 -92 144 -92q23 0 63 8v-176q-63 -18 -108 -18q-129 0 -235 134q-157 -141 -349 -141q-198 0 -304.5 117.5t-106.5 284.5q0 266 297 404q-119 185 -119 314q0 117 89.5 206t232.5 89q144 0 225.5 -84.5t81.5 -211.5
q0 -215 -249 -355l233 -336q79 124 120 359zM589 863q159 92 159 233q0 62 -34 101.5t-89 39.5q-53 0 -90 -37t-37 -100q0 -96 91 -237zM506 654q-169 -101 -169 -266q0 -107 61.5 -175t161.5 -68q129 0 223 106z" />
    <glyph glyph-name="quotesingle" unicode="'" horiz-adv-x="698" 
d="M244 1365h210l-32 -560h-145z" />
    <glyph glyph-name="parenleft" unicode="(" horiz-adv-x="523" 
d="M369 1365h166q-234 -387 -234 -853q0 -468 234 -854h-166q-276 397 -276 854q0 466 276 853z" />
    <glyph glyph-name="parenright" unicode=")" horiz-adv-x="523" 
d="M154 -342h-166q234 387 234 854q0 466 -234 853h166q276 -388 276 -853q0 -466 -276 -854z" />
    <glyph glyph-name="asterisk" unicode="*" horiz-adv-x="1046" 
d="M448 1365h151l-23 -270l224 150l71 -137l-236 -106l236 -105l-71 -136l-224 149l23 -270h-151l22 270l-223 -149l-71 136l236 105l-236 106l71 137l223 -150z" />
    <glyph glyph-name="plus" unicode="+" horiz-adv-x="1046" 
d="M610 766h331v-167h-331v-335h-174v335h-332v167h332v335h174v-335z" />
    <glyph glyph-name="comma" unicode="," horiz-adv-x="489" 
d="M140 258h228v-246l-149 -301h-99l125 289h-105v258z" />
    <glyph glyph-name="hyphen" unicode="-" horiz-adv-x="593" 
d="M80 596h432v-167h-432v167z" />
    <glyph glyph-name="period" unicode="." horiz-adv-x="489" 
d="M130 258h228v-258h-228v258z" />
    <glyph glyph-name="slash" unicode="/" horiz-adv-x="977" 
d="M723 1365h156l-754 -1707h-156z" />
    <glyph glyph-name="zero" unicode="0" horiz-adv-x="1046" 
d="M968 699q0 -382 -113.5 -553t-331.5 -171q-445 0 -445 691q0 383 114 553.5t331 170.5q445 0 445 -691zM735 683q0 300 -53.5 420t-158.5 120q-104 0 -158 -118.5t-54 -421.5q0 -326 59 -433t153 -107q107 0 159.5 121.5t52.5 418.5z" />
    <glyph glyph-name="one" unicode="1" horiz-adv-x="1046" 
d="M531 1380h165v-1212h222v-168h-680v168h237v935q-92 -111 -243 -193v210q176 96 299 260z" />
    <glyph glyph-name="two" unicode="2" horiz-adv-x="1046" 
d="M270 927l-203 43q36 206 149.5 313t289.5 107q192 0 301 -113t109 -289q0 -204 -157 -388t-452 -402h617l-10 -198h-847v196q397 342 506.5 498t109.5 281q0 100 -51.5 164t-139.5 64q-187 0 -222 -276z" />
    <glyph glyph-name="three" unicode="3" horiz-adv-x="1046" 
d="M267 1014l-190 44q94 332 421 332q187 0 293.5 -98.5t106.5 -268.5q0 -216 -213 -305q251 -68 251 -335q0 -190 -124 -299t-319 -109q-175 0 -297.5 86.5t-155.5 279.5l194 46q50 -233 245 -233q89 0 154 58.5t65 185.5q0 100 -59 163.5t-217 63.5h-86v167h86
q88 0 134.5 15t80.5 65.5t34 130.5q0 98 -50 156t-139 58q-165 0 -215 -203z" />
    <glyph glyph-name="four" unicode="4" horiz-adv-x="1046" 
d="M554 1390h260v-891h171v-173h-171v-326h-220v326h-532v166zM605 491v699l-364 -699h364z" />
    <glyph glyph-name="five" unicode="5" horiz-adv-x="1046" 
d="M182 1365h710l-21 -198h-519l-20 -379q95 127 252 127q171 0 274 -120t103 -335q0 -230 -123.5 -357.5t-326.5 -127.5q-161 0 -278 89t-148 263l201 49q47 -214 231 -214q224 0 224 290q0 131 -55.5 204t-162.5 73q-151 0 -214 -150l-170 36z" />
    <glyph glyph-name="six" unicode="6" horiz-adv-x="1046" 
d="M971 1059l-188 -59q-48 215 -208 215q-128 0 -189.5 -132.5t-67.5 -404.5q89 202 291 202q156 0 265 -120.5t109 -324.5q0 -208 -115.5 -334t-305.5 -126q-201 0 -326.5 164t-125.5 512q0 359 126 549t342 190q142 0 247 -79t146 -252zM763 430q0 137 -54 206t-144 69
q-108 0 -165 -79.5t-57 -197.5q0 -121 59 -199.5t159 -78.5q202 0 202 280z" />
    <glyph glyph-name="seven" unicode="7" horiz-adv-x="1046" 
d="M162 1365h788v-159q-170 -218 -271.5 -540t-101.5 -666h-239q0 625 410 1167h-604z" />
    <glyph glyph-name="eight" unicode="8" horiz-adv-x="1046" 
d="M723 738q255 -123 255 -364q0 -170 -123.5 -284.5t-342.5 -114.5q-216 0 -329.5 103t-113.5 269q0 231 254 347q-207 120 -207 322q0 160 109.5 267t309.5 107q192 0 296.5 -97.5t104.5 -250.5q0 -200 -213 -304zM553 810q186 93 186 229q0 83 -55.5 138.5t-148.5 55.5
q-88 0 -145 -51.5t-57 -133.5q0 -156 220 -238zM484 610q-211 -89 -211 -249q0 -106 70 -165t179 -59q101 0 169.5 55.5t68.5 148.5q0 81 -56 142.5t-220 126.5z" />
    <glyph glyph-name="nine" unicode="9" horiz-adv-x="1046" 
d="M89 274l195 58q44 -182 193 -182q127 0 182.5 133t60.5 381q-91 -180 -279 -180q-157 0 -266 123t-109 325t116 330t310 128q441 0 441 -645q0 -770 -466 -770q-146 0 -236 67.5t-142 231.5zM700 943q0 120 -55.5 196t-151.5 76q-92 0 -150.5 -71.5t-58.5 -204.5
q0 -123 55 -195.5t153 -72.5q100 0 154 79t54 193z" />
    <glyph glyph-name="colon" unicode=":" horiz-adv-x="488" 
d="M130 1010h228v-258h-228v258zM130 258h228v-258h-228v258z" />
    <glyph glyph-name="semicolon" unicode=";" horiz-adv-x="489" 
d="M140 1010h228v-258h-228v258zM140 258h228v-246l-149 -301h-99l125 289h-105v258z" />
    <glyph glyph-name="semicolon" unicode="&#x37e;" horiz-adv-x="489" 
d="M140 1010h228v-258h-228v258zM140 258h228v-246l-149 -301h-99l125 289h-105v258z" />
    <glyph glyph-name="less" unicode="&#x3c;" horiz-adv-x="1046" 
d="M946 1221v-230l-641 -310l640 -310l1 -229l-887 442v196z" />
    <glyph glyph-name="equal" unicode="=" horiz-adv-x="1046" 
d="M941 740h-837v166h837v-166zM941 459h-837v166h837v-166z" />
    <glyph glyph-name="greater" unicode="&#x3e;" horiz-adv-x="1046" 
d="M100 142v230l642 310l-641 311l-1 228l887 -442v-196z" />
    <glyph glyph-name="question" unicode="?" horiz-adv-x="1012" 
d="M272 928l-194 38q38 424 414 424q181 0 286 -102t105 -275q0 -86 -36 -171.5t-169 -194.5q-91 -75 -110.5 -117t-19.5 -112l1 -54h-189l1 42q0 147 23 205t114 136q90 77 124 131.5t34 138.5q0 96 -47.5 145t-129.5 49q-191 0 -207 -283zM343 246h223v-246h-223v246z" />
    <glyph glyph-name="at" unicode="@" horiz-adv-x="1221" 
d="M796 1038h120l-59 -423q-13 -95 -13 -135q0 -69 50 -69q73 0 124 100t51 259q0 245 -115.5 378t-307.5 133q-215 0 -349 -172.5t-134 -435.5q0 -259 137 -422t371 -163q193 0 365 107l46 -110q-208 -118 -418 -118q-290 0 -469.5 188t-179.5 513q0 323 175 528t459 205
q253 0 405.5 -163.5t152.5 -450.5q0 -226 -96.5 -367t-235.5 -141q-122 0 -148 117q-59 -122 -178 -122q-99 0 -160.5 89t-61.5 242q0 192 83.5 320t208.5 128q115 0 162 -126zM720 730q0 173 -93 173q-62 0 -102 -83t-40 -212q0 -86 26 -135t69 -49q68 0 104 92t36 214z
" />
    <glyph glyph-name="A" unicode="A" horiz-adv-x="1012" 
d="M387 1365h253l366 -1365h-229l-86 342h-399l-84 -342h-216zM646 520l-155 625l-154 -625h309z" />
    <glyph glyph-name="B" unicode="B" horiz-adv-x="1116" 
d="M131 1365h413q156 0 237 -25t137 -111.5t56 -210.5q0 -227 -203 -299q245 -77 245 -343q0 -151 -96.5 -263.5t-369.5 -112.5h-419v1365zM352 799h143q151 0 199 55.5t48 143.5q0 103 -55 147.5t-170 44.5h-165v-391zM352 181h182q250 0 250 221q0 86 -53 154t-216 68
h-163v-443z" />
    <glyph glyph-name="C" unicode="C" horiz-adv-x="1081" 
d="M817 459l208 -29q-64 -455 -447 -455q-249 0 -371 191t-122 511q0 345 129 529t372 184q376 0 441 -466l-210 -31q-34 310 -230 310q-262 0 -262 -539q0 -502 262 -502q105 0 156.5 76.5t73.5 220.5z" />
    <glyph glyph-name="D" unicode="D" horiz-adv-x="1151" 
d="M132 1365h307q223 0 356.5 -79t202 -235t68.5 -346q0 -200 -61.5 -356.5t-188 -252.5t-360.5 -96h-324v1365zM358 1184v-1003h94q197 0 286 136.5t89 364.5q0 502 -375 502h-94z" />
    <glyph glyph-name="E" unicode="E" 
d="M131 1365h782v-181h-556v-390h436v-182h-436v-427h565v-185h-791v1365z" />
    <glyph glyph-name="F" unicode="F" horiz-adv-x="872" 
d="M131 1365h758v-181h-532v-408h426v-181h-426v-595h-226v1365z" />
    <glyph glyph-name="G" unicode="G" horiz-adv-x="1152" 
d="M595 700h456v-710h-120l-30 173q-104 -188 -329 -188q-229 0 -358 185.5t-129 503.5q0 335 127.5 530.5t391.5 195.5q368 0 440 -416l-204 -51q-36 176 -97 228t-144 52q-275 0 -275 -519q0 -522 282 -522q234 0 234 357h-245v181z" />
    <glyph glyph-name="H" unicode="H" horiz-adv-x="1116" 
d="M131 1365h226v-566h402v566h226v-1365h-226v608h-402v-608h-226v1365z" />
    <glyph glyph-name="I" unicode="I" horiz-adv-x="488" 
d="M131 1365h226v-1365h-226v1365z" />
    <glyph glyph-name="J" unicode="J" horiz-adv-x="628" 
d="M276 1365h226v-849q0 -211 -24 -314t-103 -165t-227 -62q-76 0 -181 25v187q70 -19 132 -19q73 0 110.5 27t52 82.5t14.5 238.5v849z" />
    <glyph glyph-name="K" unicode="K" horiz-adv-x="1047" 
d="M131 1365h226v-651l412 651h239l-352 -501l412 -864h-245l-305 677l-161 -229v-448h-226v1365z" />
    <glyph glyph-name="L" unicode="L" horiz-adv-x="837" 
d="M131 1365h226v-1174h483v-191h-709v1365z" />
    <glyph glyph-name="M" unicode="M" horiz-adv-x="1465" 
d="M126 1365h335l272 -984l279 984h321v-1365h-212v1165l-324 -1165h-164l-318 1166v-1166h-189v1365z" />
    <glyph glyph-name="N" unicode="N" horiz-adv-x="1151" 
d="M124 1365h266l449 -984v984h189v-1365h-211l-504 1093v-1093h-189v1365z" />
    <glyph glyph-name="O" unicode="O" horiz-adv-x="1152" 
d="M1067 683q0 -350 -125 -529t-363 -179q-239 0 -366 178.5t-127 529.5q0 348 126 527.5t366 179.5q237 0 363 -178.5t126 -528.5zM830 683q0 243 -56.5 382.5t-197.5 139.5t-197 -140t-56 -382q0 -238 55 -380t201 -142q137 0 194 137.5t57 384.5z" />
    <glyph glyph-name="P" unicode="P" horiz-adv-x="1012" 
d="M131 1365h338q162 0 263 -30.5t170 -135t69 -251.5q0 -135 -56 -232t-150.5 -140t-290.5 -43h-117v-533h-226v1365zM357 1190v-476h112q150 0 207.5 56t57.5 182q0 94 -38 152.5t-83.5 72t-143.5 13.5h-112z" />
    <glyph glyph-name="Q" unicode="Q" horiz-adv-x="1151" 
d="M991 -119v-172q-63 -24 -133 -24q-279 0 -281 292q-228 0 -360 170t-132 536q0 348 126 527.5t366 179.5q239 0 364 -179.5t125 -527.5q0 -549 -312 -673q0 -75 25.5 -111t108.5 -36q49 0 103 18zM827 683q0 176 -28 296t-82.5 173t-141.5 53q-139 0 -195.5 -137
t-56.5 -385t56.5 -385t195.5 -137q141 0 196.5 138.5t55.5 383.5z" />
    <glyph glyph-name="R" unicode="R" horiz-adv-x="1081" 
d="M131 1365h411q223 0 329 -101t106 -290q0 -252 -209 -357l259 -617h-245l-213 570h-212v-570h-226v1365zM357 1190v-445h173q116 0 170.5 64t54.5 167q0 214 -223 214h-175z" />
    <glyph glyph-name="S" unicode="S" horiz-adv-x="1047" 
d="M944 1060l-193 -67q-34 108 -89.5 159.5t-151.5 51.5q-89 0 -137.5 -52.5t-48.5 -120.5q0 -75 54.5 -119.5t217.5 -106.5q139 -53 214 -101t121.5 -128.5t46.5 -186.5q0 -172 -121.5 -293t-340.5 -121q-378 0 -468 382l202 57q53 -252 276 -252q109 0 165.5 56.5
t56.5 139.5q0 61 -39 113t-194 111q-164 62 -236.5 105t-123.5 127t-51 191q0 163 113.5 274t301.5 111q333 0 425 -330z" />
    <glyph glyph-name="T" unicode="T" horiz-adv-x="768" 
d="M-32 1365h833v-192h-305v-1173h-226v1173h-302v192z" />
    <glyph glyph-name="U" unicode="U" horiz-adv-x="1116" 
d="M121 1365h221v-847q0 -142 15 -209.5t68.5 -107t144.5 -39.5q86 0 134 32.5t68 92t20 235.5v843h203v-832q0 -200 -28.5 -308t-132 -179t-277.5 -71q-135 0 -234.5 44.5t-150.5 144t-51 354.5v847z" />
    <glyph glyph-name="V" unicode="V" 
d="M-8 1365h238l259 -1089l260 1089h200l-360 -1368l-245 3z" />
    <glyph glyph-name="W" unicode="W" horiz-adv-x="1430" 
d="M5 1365h229l185 -1022l214 1022h196l212 -1023l194 1023h191l-287 -1368h-204l-216 1002l-212 -1002h-208z" />
    <glyph glyph-name="X" unicode="X" horiz-adv-x="907" 
d="M16 1365h251l196 -435l218 435h211l-316 -620l359 -745h-254l-232 523l-263 -523h-214l365 707z" />
    <glyph glyph-name="Y" unicode="Y" horiz-adv-x="837" 
d="M-65 1365h245l251 -569l255 569h216l-379 -788v-577h-225v577z" />
    <glyph glyph-name="Z" unicode="Z" horiz-adv-x="872" 
d="M38 1365h819v-158l-604 -1017h620v-190h-872v175l599 1005h-562v185z" />
    <glyph glyph-name="bracketleft" unicode="[" horiz-adv-x="523" 
d="M147 1365h354v-115h-160v-1477h160v-115h-354v1707z" />
    <glyph glyph-name="backslash" unicode="\" horiz-adv-x="977" 
d="M254 1365l754 -1707h-156l-754 1707h156z" />
    <glyph glyph-name="bracketright" unicode="]" horiz-adv-x="523" 
d="M376 -342h-354v115h161v1477h-161v115h354v-1707z" />
    <glyph glyph-name="asciicircum" unicode="^" horiz-adv-x="1024" 
d="M266 703h-244l338 669h305l338 -669h-244l-247 484z" />
    <glyph glyph-name="underscore" unicode="_" horiz-adv-x="1024" 
d="M0 -107h1024v-208h-1024v208z" />
    <glyph glyph-name="grave" unicode="`" horiz-adv-x="1024" 
d="M666 1208l-76 -77l-353 222l108 136z" />
    <glyph glyph-name="a" unicode="a" 
d="M310 724l-201 25q20 135 124.5 210t256.5 75q136 0 217.5 -54.5t102.5 -129.5t21 -227v-344q0 -209 18 -279h-197q-13 55 -13 168q-95 -193 -284 -193q-128 0 -205.5 78.5t-77.5 213.5q0 165 113.5 261t393.5 96q14 0 44 -1v41q0 108 -32.5 163t-116.5 55
q-137 0 -164 -158zM623 492q-40 4 -61 4q-272 0 -272 -213q0 -155 135 -155q79 0 138.5 84t59.5 231v49z" />
    <glyph glyph-name="b" unicode="b" horiz-adv-x="977" 
d="M122 1365h207v-471q89 134 235 134q158 0 249.5 -134.5t91.5 -362.5q0 -552 -374 -552q-176 0 -245 158q-23 -57 -46 -137h-118v1365zM329 427q0 -291 178 -291q92 0 134 88t42 295q0 199 -42 277.5t-130 78.5q-77 0 -129.5 -70t-52.5 -189v-189z" />
    <glyph glyph-name="c" unicode="c" horiz-adv-x="837" 
d="M823 670l-201 -22q-15 132 -51 176.5t-102 44.5q-93 0 -135 -85.5t-42 -300.5q0 -336 177 -336q136 0 153 219l201 -18q-41 -373 -369 -373q-194 0 -287.5 140t-93.5 387q0 260 101 396t294 136q311 0 355 -364z" />
    <glyph glyph-name="d" unicode="d" horiz-adv-x="977" 
d="M649 1365h207v-1365h-191v153q-73 -171 -251 -171q-171 0 -256.5 143t-85.5 375q0 249 94.5 388t251.5 139q165 0 231 -134v472zM649 594q0 156 -59 218.5t-122 62.5q-174 0 -174 -356q0 -380 176 -380q68 0 123.5 63t55.5 219v173z" />
    <glyph glyph-name="e" unicode="e" horiz-adv-x="907" 
d="M857 474h-571q0 -205 55.5 -273.5t139.5 -68.5q140 0 177 189l190 -25q-75 -321 -374 -321q-183 0 -292 131t-109 384q0 260 110 402t294 142q129 0 217 -71t124 -186.5t39 -302.5zM644 615q0 267 -174 267q-163 0 -179 -267h353z" />
    <glyph glyph-name="f" unicode="f" horiz-adv-x="523" 
d="M356 1010h181v-168h-181v-842h-204v842h-132v168h132q3 180 31 248.5t91.5 107.5t172.5 39q63 0 123 -12v-166q-43 7 -79 7q-62 0 -91.5 -23t-36.5 -58.5t-7 -142.5z" />
    <glyph glyph-name="g" unicode="g" horiz-adv-x="907" 
d="M908 1171v-153q-29 6 -48 6q-92 0 -109 -111q76 -96 76 -217q0 -137 -95 -231t-256 -94q-61 0 -128 18q-76 -29 -76 -88q0 -51 40.5 -66t214.5 -24q150 -8 226 -28t121.5 -81.5t45.5 -161.5q0 -154 -119 -233.5t-339 -79.5q-212 0 -309.5 69.5t-97.5 184.5q0 146 147 195
q-110 61 -110 165q0 132 149 203q-130 86 -130 259q0 148 99 239.5t255 91.5q102 0 191 -44q16 105 60.5 145.5t129.5 40.5q25 0 62 -5zM612 699q0 198 -137 198q-149 0 -149 -200q0 -194 144 -194q142 0 142 196zM331 42q-87 -43 -87 -129q0 -72 56 -106t186 -34
q240 0 240 139q0 68 -45.5 93.5t-179.5 29.5q-113 4 -170 7z" />
    <glyph glyph-name="h" unicode="h" 
d="M122 1365h209v-489q71 158 241 158q87 0 146.5 -40t83 -106.5t23.5 -251.5v-636h-208v636q0 158 -36 194.5t-89 36.5q-161 0 -161 -289v-578h-209v1365z" />
    <glyph glyph-name="i" unicode="i" horiz-adv-x="454" 
d="M336 1146h-218v221h218v-221zM123 1010h208v-1010h-208v1010z" />
    <glyph glyph-name="j" unicode="j" horiz-adv-x="454" 
d="M341 1146h-219v221h219v-221zM127 1010h208v-974q0 -155 -15 -229t-75.5 -122t-168.5 -48q-58 0 -128 15v173q40 -10 75 -10q69 0 86.5 39t17.5 185v971z" />
    <glyph glyph-name="k" unicode="k" horiz-adv-x="872" 
d="M122 1365h209v-807l326 452h206l-261 -349l290 -661h-225l-202 506l-134 -185v-321h-209v1365z" />
    <glyph glyph-name="l" unicode="l" horiz-adv-x="454" 
d="M123 1365h209v-1365h-209v1365z" />
    <glyph glyph-name="m" unicode="m" horiz-adv-x="1430" 
d="M122 1010h193v-154q74 178 249 178q192 0 231 -188q71 188 256 188q92 0 153.5 -40t85.5 -106t24 -249v-639h-209v622q0 143 -24.5 194t-98.5 51q-158 0 -158 -275v-592h-209v615q0 131 -10.5 169.5t-39 60.5t-73.5 22q-87 0 -124 -65.5t-37 -214.5v-587h-209v1010z" />
    <glyph glyph-name="n" unicode="n" 
d="M123 1010h193v-156q70 180 250 180q102 0 164.5 -49t79 -117.5t16.5 -216.5v-651h-208v640q0 132 -23 179.5t-98 47.5q-78 0 -121.5 -60.5t-43.5 -240.5v-566h-209v1010z" />
    <glyph glyph-name="o" unicode="o" 
d="M868 515q0 -540 -400 -540q-184 0 -289.5 130.5t-105.5 399.5q0 529 400 529q182 0 288.5 -129t106.5 -390zM647 505q0 213 -47.5 292.5t-128.5 79.5q-176 0 -176 -372q0 -190 41 -281t135 -91q93 0 134.5 92.5t41.5 279.5z" />
    <glyph glyph-name="p" unicode="p" horiz-adv-x="977" 
d="M122 1010h192v-166q79 183 250 183q153 0 247 -133.5t94 -380.5q0 -221 -85.5 -376t-265.5 -155q-144 0 -225 123v-447h-207v1352zM329 422q0 -97 14.5 -151.5t59.5 -93t102 -38.5q178 0 178 374q0 362 -174 362q-77 0 -128.5 -74t-51.5 -211v-168z" />
    <glyph glyph-name="q" unicode="q" horiz-adv-x="977" 
d="M741 1017h114q-4 -84 -4 -235v-1124h-209v471q-83 -147 -236 -147q-142 0 -238 127t-96 378q0 275 100 408t257 133q167 0 247 -168q34 62 65 157zM642 593q0 135 -51.5 208.5t-124.5 73.5q-87 0 -130 -84.5t-43 -280.5q0 -371 172 -371q69 0 123 80t54 243v131z" />
    <glyph glyph-name="r" unicode="r" horiz-adv-x="558" 
d="M123 1010h184v-226q84 247 252 247q16 0 38 -3v-217q-26 3 -42 3q-223 0 -223 -300v-514h-209v1010z" />
    <glyph glyph-name="s" unicode="s" horiz-adv-x="803" 
d="M731 774l-163 -44q-45 152 -171 152q-58 0 -93.5 -36t-35.5 -89q0 -60 36 -88t165 -70q159 -53 229 -119.5t70 -185.5q0 -134 -100 -226.5t-270 -92.5q-321 0 -364 294l177 33q34 -174 193 -174q81 0 120.5 40t39.5 95q0 38 -27 75.5t-151 77.5q-119 38 -179.5 71
t-99.5 95.5t-39 141.5q0 129 94 219.5t243 90.5q253 0 326 -260z" />
    <glyph glyph-name="t" unicode="t" horiz-adv-x="558" 
d="M160 1273l188 18v-281h193v-168h-193v-446q0 -118 6 -156.5t36 -63t100 -24.5q37 0 84 7v-166q-84 -18 -156 -18q-117 0 -179 45.5t-79 123.5t-17 238v460h-131v168h137z" />
    <glyph glyph-name="u" unicode="u" horiz-adv-x="943" 
d="M116 1010h209v-642q0 -134 22 -179.5t97 -45.5q93 0 130 81t37 300v486h208v-1010h-191v152q-81 -177 -257 -177q-90 0 -147.5 38t-82.5 108t-25 243v646z" />
    <glyph glyph-name="v" unicode="v" horiz-adv-x="733" 
d="M-11 1010h205l189 -725l185 725h181l-286 -1010h-185z" />
    <glyph glyph-name="w" unicode="w" horiz-adv-x="1151" 
d="M-2 1010h205l150 -694l145 694h183l144 -698l160 698h169l-250 -1010h-177l-153 700l-146 -700h-177z" />
    <glyph glyph-name="x" unicode="x" horiz-adv-x="733" 
d="M-3 1010h231l148 -294l154 294h194l-255 -457l298 -553h-232l-183 357l-190 -357h-197l293 524z" />
    <glyph glyph-name="y" unicode="y" horiz-adv-x="733" 
d="M-1 1010h209l176 -694l181 694h188l-328 -1074q-36 -117 -66 -173t-85 -90.5t-142 -34.5q-52 0 -107 14v166q40 -7 73 -7q81 0 115 39.5t73 183.5z" />
    <glyph glyph-name="z" unicode="z" horiz-adv-x="698" 
d="M66 1010h614v-127l-425 -725h429v-158h-654v158l410 694h-374v158z" />
    <glyph glyph-name="braceleft" unicode="{" horiz-adv-x="523" 
d="M498 1365v-119q-79 -1 -101 -33.5t-22 -166.5v-216q0 -178 -22 -228t-103 -78q80 -29 102.5 -79t22.5 -228v-240q0 -133 21.5 -166.5t101.5 -33.5v-119q-54 -2 -60 -2q-136 0 -196 67.5t-60 253.5v244q0 153 -18 192t-91 39v143q72 0 90.5 38t18.5 193v220q0 195 64 258
t188 63q18 0 64 -2z" />
    <glyph glyph-name="bar" unicode="|" horiz-adv-x="1024" 
d="M396 1365h232v-1706h-232v1706z" />
    <glyph glyph-name="braceright" unicode="}" horiz-adv-x="523" 
d="M25 -342v119q79 0 101 33t22 167v240q0 177 21.5 227t103.5 80q-80 28 -102.5 78t-22.5 228v216q0 133 -22 165.5t-101 34.5v119q54 2 59 2q140 0 198.5 -70t58.5 -251v-220q0 -121 5 -155t30 -55t74 -21v-143q-49 0 -73.5 -20.5t-30 -54.5t-5.5 -156v-244
q0 -195 -64 -258t-188 -63q-18 0 -64 2z" />
    <glyph glyph-name="asciitilde" unicode="~" horiz-adv-x="1365" 
d="M304 487l-117 77q72 163 142 211.5t154 48.5q73 0 220 -61q136 -57 188 -57q99 0 166 122l121 -70q-112 -252 -314 -252q-62 0 -239 72q-113 46 -158 46q-95 0 -163 -137z" />
    <glyph glyph-name="Adieresis" unicode="&#xc4;" horiz-adv-x="1012" 
d="M387 1365h253l366 -1365h-229l-86 342h-399l-84 -342h-216zM646 520l-155 625l-154 -625h309zM253 1604q0 44 32.5 74t76.5 30q43 0 76 -29t33 -75q0 -45 -34 -73.5t-75 -28.5q-40 0 -74.5 28t-34.5 74zM571 1604q0 43 32.5 73.5t76.5 30.5t76.5 -30t32.5 -74
q0 -46 -34 -74t-75 -28t-75 28.5t-34 73.5z" />
    <glyph glyph-name="Aring" unicode="&#xc5;" horiz-adv-x="1012" 
d="M387 1365h253l366 -1365h-229l-86 342h-399l-84 -342h-216zM646 520l-155 625l-154 -625h309zM315 1643q0 80 56 135t132 55t132 -55t56 -135q0 -81 -58.5 -134t-129.5 -53q-70 0 -129 52.5t-59 134.5zM417 1644q0 -38 26.5 -62.5t59.5 -24.5t59.5 24.5t26.5 61.5
q0 38 -25.5 64t-60.5 26q-34 0 -60 -25.5t-26 -63.5z" />
    <glyph glyph-name="Ccedilla" unicode="&#xc7;" horiz-adv-x="1081" 
d="M1027 924l-210 -31q-34 310 -230 310q-262 0 -262 -539q0 -502 262 -502q105 0 156.5 76.5t73.5 220.5l208 -29q-59 -445 -433 -455l-25 -78q19 1 29 1q91 0 135.5 -45t44.5 -106q0 -72 -57.5 -122t-154.5 -50q-99 0 -202 65l28 77q86 -38 155 -38q80 0 80 62
q0 30 -21.5 49.5t-46.5 23t-118 5.5l54 162q-221 43 -314.5 235.5t-93.5 460.5q0 345 129 529t372 184q376 0 441 -466z" />
    <glyph glyph-name="Eacute" unicode="&#xc9;" 
d="M131 1365h782v-181h-556v-390h436v-182h-436v-427h565v-185h-791v1365zM356 1565l321 281l108 -136l-353 -222z" />
    <glyph glyph-name="Ntilde" unicode="&#xd1;" horiz-adv-x="1151" 
d="M124 1365h266l449 -984v984h189v-1365h-211l-504 1093v-1093h-189v1365zM822 1704l85 -57q-89 -153 -204 -153q-53 0 -130 45q-70 40 -102 40q-49 0 -98 -74l-84 57q90 153 202 153q51 0 129 -45q74 -41 111 -41q48 0 91 75z" />
    <glyph glyph-name="Odieresis" unicode="&#xd6;" horiz-adv-x="1152" 
d="M1067 683q0 -350 -125 -529t-363 -179q-239 0 -366 178.5t-127 529.5q0 348 126 527.5t366 179.5q237 0 363 -178.5t126 -528.5zM830 683q0 243 -56.5 382.5t-197.5 139.5t-197 -140t-56 -382q0 -238 55 -380t201 -142q137 0 194 137.5t57 384.5zM309 1604q0 44 32.5 74
t76.5 30q43 0 76 -29t33 -75q0 -45 -34 -73.5t-75 -28.5q-40 0 -74.5 28t-34.5 74zM627 1604q0 43 32.5 73.5t76.5 30.5t76.5 -30t32.5 -74q0 -46 -34 -74t-75 -28t-75 28.5t-34 73.5z" />
    <glyph glyph-name="Udieresis" unicode="&#xdc;" horiz-adv-x="1116" 
d="M121 1365h221v-847q0 -142 15 -209.5t68.5 -107t144.5 -39.5q86 0 134 32.5t68 92t20 235.5v843h203v-832q0 -200 -28.5 -308t-132 -179t-277.5 -71q-135 0 -234.5 44.5t-150.5 144t-51 354.5v847zM299 1604q0 44 32.5 74t76.5 30q43 0 76 -29t33 -75q0 -45 -34 -73.5
t-75 -28.5q-40 0 -74.5 28t-34.5 74zM617 1604q0 43 32.5 73.5t76.5 30.5t76.5 -30t32.5 -74q0 -46 -34 -74t-75 -28t-75 28.5t-34 73.5z" />
    <glyph glyph-name="aacute" unicode="&#xe1;" 
d="M310 724l-201 25q20 135 124.5 210t256.5 75q136 0 217.5 -54.5t102.5 -129.5t21 -227v-344q0 -209 18 -279h-197q-13 55 -13 168q-95 -193 -284 -193q-128 0 -205.5 78.5t-77.5 213.5q0 165 113.5 261t393.5 96q14 0 44 -1v41q0 108 -32.5 163t-116.5 55
q-137 0 -164 -158zM623 492q-40 4 -61 4q-272 0 -272 -213q0 -155 135 -155q79 0 138.5 84t59.5 231v49zM355 1208l321 281l108 -136l-353 -222z" />
    <glyph glyph-name="agrave" unicode="&#xe0;" 
d="M310 724l-201 25q20 135 124.5 210t256.5 75q136 0 217.5 -54.5t102.5 -129.5t21 -227v-344q0 -209 18 -279h-197q-13 55 -13 168q-95 -193 -284 -193q-128 0 -205.5 78.5t-77.5 213.5q0 165 113.5 261t393.5 96q14 0 44 -1v41q0 108 -32.5 163t-116.5 55
q-137 0 -164 -158zM623 492q-40 4 -61 4q-272 0 -272 -213q0 -155 135 -155q79 0 138.5 84t59.5 231v49zM627 1208l-76 -77l-353 222l108 136z" />
    <glyph glyph-name="acircumflex" unicode="&#xe2;" 
d="M310 724l-201 25q20 135 124.5 210t256.5 75q136 0 217.5 -54.5t102.5 -129.5t21 -227v-344q0 -209 18 -279h-197q-13 55 -13 168q-95 -193 -284 -193q-128 0 -205.5 78.5t-77.5 213.5q0 165 113.5 261t393.5 96q14 0 44 -1v41q0 108 -32.5 163t-116.5 55
q-137 0 -164 -158zM623 492q-40 4 -61 4q-272 0 -272 -213q0 -155 135 -155q79 0 138.5 84t59.5 231v49zM105 1152l357 275l358 -275l-178 -14l-180 122l-179 -122z" />
    <glyph glyph-name="adieresis" unicode="&#xe4;" 
d="M310 724l-201 25q20 135 124.5 210t256.5 75q136 0 217.5 -54.5t102.5 -129.5t21 -227v-344q0 -209 18 -279h-197q-13 55 -13 168q-95 -193 -284 -193q-128 0 -205.5 78.5t-77.5 213.5q0 165 113.5 261t393.5 96q14 0 44 -1v41q0 108 -32.5 163t-116.5 55
q-137 0 -164 -158zM623 492q-40 4 -61 4q-272 0 -272 -213q0 -155 135 -155q79 0 138.5 84t59.5 231v49zM219 1265q0 44 32.5 74t76.5 30q43 0 76 -29t33 -75q0 -45 -34 -73.5t-75 -28.5q-40 0 -74.5 28t-34.5 74zM537 1265q0 43 32.5 73.5t76.5 30.5t76.5 -30t32.5 -74
q0 -46 -34 -74t-75 -28t-75 28.5t-34 73.5z" />
    <glyph glyph-name="atilde" unicode="&#xe3;" 
d="M310 724l-201 25q20 135 124.5 210t256.5 75q136 0 217.5 -54.5t102.5 -129.5t21 -227v-344q0 -209 18 -279h-197q-13 55 -13 168q-95 -193 -284 -193q-128 0 -205.5 78.5t-77.5 213.5q0 165 113.5 261t393.5 96q14 0 44 -1v41q0 108 -32.5 163t-116.5 55
q-137 0 -164 -158zM623 492q-40 4 -61 4q-272 0 -272 -213q0 -155 135 -155q79 0 138.5 84t59.5 231v49zM716 1369l85 -57q-89 -153 -204 -153q-53 0 -130 45q-70 40 -102 40q-49 0 -98 -74l-84 57q90 153 202 153q51 0 129 -45q74 -41 111 -41q48 0 91 75z" />
    <glyph glyph-name="aring" unicode="&#xe5;" 
d="M310 724l-201 25q20 135 124.5 210t256.5 75q136 0 217.5 -54.5t102.5 -129.5t21 -227v-344q0 -209 18 -279h-197q-13 55 -13 168q-95 -193 -284 -193q-128 0 -205.5 78.5t-77.5 213.5q0 165 113.5 261t393.5 96q14 0 44 -1v41q0 108 -32.5 163t-116.5 55
q-137 0 -164 -158zM623 492q-40 4 -61 4q-272 0 -272 -213q0 -155 135 -155q79 0 138.5 84t59.5 231v49zM298 1301q0 80 56 135t132 55t132 -55t56 -135q0 -81 -58.5 -134t-129.5 -53q-70 0 -129 52.5t-59 134.5zM400 1302q0 -38 26.5 -62.5t59.5 -24.5t59.5 24.5t26.5 61.5
q0 38 -25.5 64t-60.5 26q-34 0 -60 -25.5t-26 -63.5z" />
    <glyph glyph-name="ccedilla" unicode="&#xe7;" horiz-adv-x="837" 
d="M823 670l-201 -22q-15 132 -51 176.5t-102 44.5q-93 0 -135 -85.5t-42 -300.5q0 -336 177 -336q136 0 153 219l201 -18q-25 -200 -113 -283t-240 -89l-24 -71h28q91 0 133 -44t42 -102q0 -71 -56.5 -119t-148.5 -48q-98 0 -197 63l28 75q83 -39 150 -39q82 0 82 63
q0 78 -123 78q-16 0 -61 -2l53 151q-303 59 -303 520q0 262 101 397.5t294 135.5q311 0 355 -364z" />
    <glyph glyph-name="eacute" unicode="&#xe9;" horiz-adv-x="907" 
d="M857 474h-571q0 -205 55.5 -273.5t139.5 -68.5q140 0 177 189l190 -25q-75 -321 -374 -321q-183 0 -292 131t-109 384q0 260 110 402t294 142q129 0 217 -71t124 -186.5t39 -302.5zM644 615q0 267 -174 267q-163 0 -179 -267h353zM316 1208l321 281l108 -136l-353 -222z
" />
    <glyph glyph-name="egrave" unicode="&#xe8;" horiz-adv-x="907" 
d="M857 474h-571q0 -205 55.5 -273.5t139.5 -68.5q140 0 177 189l190 -25q-75 -321 -374 -321q-183 0 -292 131t-109 384q0 260 110 402t294 142q129 0 217 -71t124 -186.5t39 -302.5zM644 615q0 267 -174 267q-163 0 -179 -267h353zM638 1208l-76 -77l-353 222l108 136z
" />
    <glyph glyph-name="ecircumflex" unicode="&#xea;" horiz-adv-x="907" 
d="M857 474h-571q0 -205 55.5 -273.5t139.5 -68.5q140 0 177 189l190 -25q-75 -321 -374 -321q-183 0 -292 131t-109 384q0 260 110 402t294 142q129 0 217 -71t124 -186.5t39 -302.5zM644 615q0 267 -174 267q-163 0 -179 -267h353zM120 1152l357 275l358 -275l-178 -14
l-180 122l-179 -122z" />
    <glyph glyph-name="edieresis" unicode="&#xeb;" horiz-adv-x="907" 
d="M857 474h-571q0 -205 55.5 -273.5t139.5 -68.5q140 0 177 189l190 -25q-75 -321 -374 -321q-183 0 -292 131t-109 384q0 260 110 402t294 142q129 0 217 -71t124 -186.5t39 -302.5zM644 615q0 267 -174 267q-163 0 -179 -267h353zM209 1265q0 44 32.5 74t76.5 30
q43 0 76 -29t33 -75q0 -45 -34 -73.5t-75 -28.5q-40 0 -74.5 28t-34.5 74zM527 1265q0 43 32.5 73.5t76.5 30.5t76.5 -30t32.5 -74q0 -46 -34 -74t-75 -28t-75 28.5t-34 73.5z" />
    <glyph glyph-name="iacute" unicode="&#xed;" horiz-adv-x="454" 
d="M123 1010h208v-1010h-208v1010zM66 1208l321 281l108 -136l-353 -222z" />
    <glyph glyph-name="igrave" unicode="&#xec;" horiz-adv-x="454" 
d="M123 1010h208v-1010h-208v1010zM388 1208l-76 -77l-353 222l108 136z" />
    <glyph glyph-name="icircumflex" unicode="&#xee;" horiz-adv-x="454" 
d="M122 1010h208v-1010h-208v1010zM-130 1152l357 275l358 -275l-178 -14l-180 122l-179 -122z" />
    <glyph glyph-name="idieresis" unicode="&#xef;" horiz-adv-x="454" 
d="M123 1010h208v-1010h-208v1010zM-41 1265q0 44 32.5 74t76.5 30q43 0 76 -29t33 -75q0 -45 -34 -73.5t-75 -28.5q-40 0 -74.5 28t-34.5 74zM277 1265q0 43 32.5 73.5t76.5 30.5t76.5 -30t32.5 -74q0 -46 -34 -74t-75 -28t-75 28.5t-34 73.5z" />
    <glyph glyph-name="ntilde" unicode="&#xf1;" 
d="M123 1010h193v-156q70 180 250 180q102 0 164.5 -49t79 -117.5t16.5 -216.5v-651h-208v640q0 132 -23 179.5t-98 47.5q-78 0 -121.5 -60.5t-43.5 -240.5v-566h-209v1010zM692 1369l85 -57q-89 -153 -204 -153q-53 0 -130 45q-70 40 -102 40q-49 0 -98 -74l-84 57
q90 153 202 153q51 0 129 -45q74 -41 111 -41q48 0 91 75z" />
    <glyph glyph-name="oacute" unicode="&#xf3;" 
d="M868 515q0 -540 -400 -540q-184 0 -289.5 130.5t-105.5 399.5q0 529 400 529q182 0 288.5 -129t106.5 -390zM647 505q0 213 -47.5 292.5t-128.5 79.5q-176 0 -176 -372q0 -190 41 -281t135 -91q93 0 134.5 92.5t41.5 279.5zM312 1208l321 281l108 -136l-353 -222z" />
    <glyph glyph-name="ograve" unicode="&#xf2;" 
d="M868 515q0 -540 -400 -540q-184 0 -289.5 130.5t-105.5 399.5q0 529 400 529q182 0 288.5 -129t106.5 -390zM647 505q0 213 -47.5 292.5t-128.5 79.5q-176 0 -176 -372q0 -190 41 -281t135 -91q93 0 134.5 92.5t41.5 279.5zM634 1208l-76 -77l-353 222l108 136z" />
    <glyph glyph-name="ocircumflex" unicode="&#xf4;" 
d="M868 515q0 -540 -400 -540q-184 0 -289.5 130.5t-105.5 399.5q0 529 400 529q182 0 288.5 -129t106.5 -390zM647 505q0 213 -47.5 292.5t-128.5 79.5q-176 0 -176 -372q0 -190 41 -281t135 -91q93 0 134.5 92.5t41.5 279.5zM116 1152l357 275l358 -275l-178 -14l-180 122
l-179 -122z" />
    <glyph glyph-name="odieresis" unicode="&#xf6;" 
d="M868 515q0 -540 -400 -540q-184 0 -289.5 130.5t-105.5 399.5q0 529 400 529q182 0 288.5 -129t106.5 -390zM647 505q0 213 -47.5 292.5t-128.5 79.5q-176 0 -176 -372q0 -190 41 -281t135 -91q93 0 134.5 92.5t41.5 279.5zM205 1265q0 44 32.5 74t76.5 30q43 0 76 -29
t33 -75q0 -45 -34 -73.5t-75 -28.5q-40 0 -74.5 28t-34.5 74zM523 1265q0 43 32.5 73.5t76.5 30.5t76.5 -30t32.5 -74q0 -46 -34 -74t-75 -28t-75 28.5t-34 73.5z" />
    <glyph glyph-name="otilde" unicode="&#xf5;" 
d="M868 515q0 -540 -400 -540q-184 0 -289.5 130.5t-105.5 399.5q0 529 400 529q182 0 288.5 -129t106.5 -390zM647 505q0 213 -47.5 292.5t-128.5 79.5q-176 0 -176 -372q0 -190 41 -281t135 -91q93 0 134.5 92.5t41.5 279.5zM715 1369l85 -57q-89 -153 -204 -153
q-53 0 -130 45q-70 40 -102 40q-49 0 -98 -74l-84 57q90 153 202 153q51 0 129 -45q74 -41 111 -41q48 0 91 75z" />
    <glyph glyph-name="uacute" unicode="&#xfa;" 
d="M116 1010h209v-642q0 -134 22 -179.5t97 -45.5q93 0 130 81t37 300v486h208v-1010h-191v152q-81 -177 -257 -177q-90 0 -147.5 38t-82.5 108t-25 243v646zM307 1208l321 281l108 -136l-353 -222z" />
    <glyph glyph-name="ugrave" unicode="&#xf9;" horiz-adv-x="943" 
d="M116 1010h209v-642q0 -134 22 -179.5t97 -45.5q93 0 130 81t37 300v486h208v-1010h-191v152q-81 -177 -257 -177q-90 0 -147.5 38t-82.5 108t-25 243v646zM629 1208l-76 -77l-353 222l108 136z" />
    <glyph glyph-name="ucircumflex" unicode="&#xfb;" horiz-adv-x="943" 
d="M116 1010h209v-642q0 -134 22 -179.5t97 -45.5q93 0 130 81t37 300v486h208v-1010h-191v152q-81 -177 -257 -177q-90 0 -147.5 38t-82.5 108t-25 243v646zM114 1152l357 275l358 -275l-178 -14l-180 122l-179 -122z" />
    <glyph glyph-name="udieresis" unicode="&#xfc;" 
d="M116 1010h209v-642q0 -134 22 -179.5t97 -45.5q93 0 130 81t37 300v486h208v-1010h-191v152q-81 -177 -257 -177q-90 0 -147.5 38t-82.5 108t-25 243v646zM203 1265q0 44 32.5 74t76.5 30q43 0 76 -29t33 -75q0 -45 -34 -73.5t-75 -28.5q-40 0 -74.5 28t-34.5 74z
M521 1265q0 43 32.5 73.5t76.5 30.5t76.5 -30t32.5 -74q0 -46 -34 -74t-75 -28t-75 28.5t-34 73.5z" />
    <glyph glyph-name="dagger" unicode="&#x2020;" horiz-adv-x="1046" 
d="M424 1365h198v-385h301v-178h-301v-1144h-198v1144h-301v178h301v385z" />
    <glyph glyph-name="degree" unicode="&#xb0;" horiz-adv-x="1046" 
d="M843 1071q0 -132 -94.5 -225.5t-225.5 -93.5t-225 93.5t-94 225.5t94 225.5t225 93.5q130 0 225 -92.5t95 -226.5zM682 1071q0 79 -47.5 131t-111.5 52q-65 0 -112 -53.5t-47 -129.5q0 -77 47.5 -130t111.5 -53q65 0 112 53t47 130z" />
    <glyph glyph-name="cent" unicode="&#xa2;" horiz-adv-x="1046" 
d="M484 1365h119v-187q246 -33 286 -335l-176 -23q-16 159 -115 204v-650q96 37 115 201l176 -23q-38 -301 -286 -340v-223h-119v223q-160 24 -238 157t-78 308q0 205 77.5 343t238.5 158v187zM489 1017q-120 -56 -120 -315q0 -262 120 -324v639z" />
    <glyph glyph-name="sterling" unicode="&#xa3;" horiz-adv-x="1046" 
d="M545 799h260v-162h-239q8 -56 8 -106q0 -232 -168 -353h153q157 0 229 39t120 144l162 -85q-48 -124 -108 -180t-145 -76t-258 -20h-519v180h70q83 0 135 28t87 94t35 170q0 73 -15 165h-197v162h171q-23 140 -23 215q0 168 95.5 272t267.5 104q240 0 328 -218l-161 -99
q-53 145 -166 145q-147 0 -147 -204q0 -46 14 -138z" />
    <glyph glyph-name="section" unicode="&#xa7;" horiz-adv-x="1046" 
d="M912 1124l-173 -40q-44 160 -190 160q-78 0 -117.5 -44t-39.5 -107q0 -71 41 -108t189 -98q157 -64 223.5 -131.5t66.5 -190.5q0 -159 -145 -276q157 -102 157 -283q0 -158 -110 -258t-291 -100q-334 0 -404 309l185 33q38 -185 222 -185q97 0 148.5 47t51.5 128
t-51 123.5t-207 102.5q-169 65 -240.5 133.5t-71.5 191.5q0 177 165 286q-123 96 -123 255q0 140 95 229t253 89q297 0 366 -266zM438 751q-99 -75 -99 -168q0 -54 35 -98.5t182 -99.5q69 -26 83 -32q96 72 96 164q0 47 -35 93.5t-262 140.5z" />
    <glyph glyph-name="bullet" unicode="&#x2022;" horiz-adv-x="1365" 
d="M964 696q0 -117 -82.5 -201.5t-198.5 -84.5q-119 0 -200.5 84.5t-81.5 201.5q0 118 82.5 202t199.5 84q116 0 198.5 -84t82.5 -202z" />
    <glyph glyph-name="paragraph" unicode="&#xb6;" horiz-adv-x="1046" 
d="M905 1365v-1707h-137v1570h-101v-1570h-137v914h-77q-142 0 -226 32.5t-139 128t-55 237.5q0 131 50 224t129 132t247 39h446z" />
    <glyph glyph-name="germandbls" unicode="&#xdf;" horiz-adv-x="1047" 
d="M16 749v167h119q0 124 14 202.5t67 154t142 118t200 42.5q151 0 243.5 -83t92.5 -207q0 -233 -328 -313q10 -36 141 -98q190 -89 248.5 -180t58.5 -201q0 -167 -100 -271.5t-270 -104.5q-94 0 -198 38l52 152q79 -33 150 -33q78 0 123.5 51.5t45.5 133.5q0 83 -41 129
t-156 109q-118 66 -160 120t-42 122q0 50 26 123q250 47 250 200q0 73 -44.5 117.5t-119.5 44.5q-69 0 -114 -43t-58.5 -109.5t-13.5 -209.5v-1014h-209v843h-119z" />
    <glyph glyph-name="registered" unicode="&#xae;" horiz-adv-x="1600" 
d="M86 683q0 291 210 499t504 208t504 -208.5t210 -498.5q0 -291 -209.5 -499.5t-504.5 -208.5q-296 0 -505 207.5t-209 500.5zM235 683q0 -238 165.5 -405t399.5 -167q233 0 399 168t166 404q0 235 -166 403t-399 168t-399 -168t-166 -403zM524 1092h276q293 0 293 -239
q0 -147 -131 -213l169 -367h-186l-137 333h-112v-333h-172v819zM696 968v-238h97q130 0 130 126q0 112 -129 112h-98z" />
    <glyph glyph-name="copyright" unicode="&#xa9;" horiz-adv-x="1600" 
d="M86 683q0 291 210 499t504 208t504 -208.5t210 -498.5q0 -291 -209.5 -499.5t-504.5 -208.5q-296 0 -505 207.5t-209 500.5zM235 683q0 -238 165.5 -405t399.5 -167q233 0 399 168t166 404q0 235 -166 403t-399 168t-399 -168t-166 -403zM955 564l160 -19
q-41 -286 -301 -286q-152 0 -241 106t-89 313t86.5 318t247.5 111q262 0 298 -293l-162 -21q-20 183 -135 183q-154 0 -154 -304q0 -282 154 -282q64 0 93.5 45t42.5 129z" />
    <glyph glyph-name="trademark" unicode="&#x2122;" horiz-adv-x="1465" 
d="M31 1324h500v-121h-175v-657h-152v657h-173v121zM592 1324h223l144 -559l151 559h218v-778h-142v654l-177 -654h-121l-169 655v-655h-127v778z" />
    <glyph glyph-name="acute" unicode="&#xb4;" horiz-adv-x="1024" 
d="M414 1208l321 281l108 -136l-353 -222z" />
    <glyph glyph-name="dieresis" unicode="&#xa8;" horiz-adv-x="1024" 
d="M244 1265q0 44 32.5 74t76.5 30q43 0 76 -29t33 -75q0 -45 -34 -73.5t-75 -28.5q-40 0 -74.5 28t-34.5 74zM562 1265q0 43 32.5 73.5t76.5 30.5t76.5 -30t32.5 -74q0 -46 -34 -74t-75 -28t-75 28.5t-34 73.5z" />
    <glyph glyph-name="notequal" unicode="&#x2260;" horiz-adv-x="1046" 
d="M719 906h222v-166h-300l-53 -115h353v-166h-431l-109 -234l-151 70l77 164h-223v166h300l54 115h-354v166h431l109 235l151 -71z" />
    <glyph glyph-name="AE" unicode="&#xc6;" horiz-adv-x="1430" 
d="M538 1365h870v-181h-548v-390h431v-182h-431v-427h551v-185h-772v374h-355l-161 -374h-206zM642 549v669l-287 -669h287z" />
    <glyph glyph-name="Oslash" unicode="&#xd8;" horiz-adv-x="1151" 
d="M889 1441h144l-108 -215q135 -174 135 -543q0 -349 -123.5 -528.5t-356.5 -179.5q-70 0 -96.5 7t-154.5 57l-59 -122h-144l108 215q-144 169 -144 551q0 348 124.5 527.5t362.5 179.5q142 0 254 -70zM735 1163q-62 51 -157 51q-153 0 -211.5 -141.5t-58.5 -389.5
q0 -239 40 -352zM425 194q60 -43 150 -43q149 0 208 139.5t59 392.5q0 235 -34 335z" />
    <glyph glyph-name="infinity" unicode="&#x221e;" horiz-adv-x="1460" 
d="M687 831q117 150 187 191.5t146 41.5q110 0 199 -78.5t89 -242.5q0 -187 -93 -261.5t-195 -74.5q-78 0 -148 43t-185 190q-136 -172 -288 -172q-112 0 -179.5 83t-67.5 184q0 102 67.5 184.5t179.5 82.5q152 0 288 -171zM756 737q47 -76 114 -147t147 -71
q69 0 124.5 50.5t55.5 163.5q0 104 -52 161t-131 57q-56 0 -108 -40t-150 -174zM618 735q-122 158 -220 158q-61 0 -98 -43.5t-37 -110.5q0 -71 39.5 -114t97.5 -43q100 0 218 153z" />
    <glyph glyph-name="plusminus" unicode="&#xb1;" horiz-adv-x="1046" 
d="M610 766h331v-167h-331v-325h-174v325h-332v167h332v335h174v-335zM941 11h-837v166h837v-166z" />
    <glyph glyph-name="lessequal" unicode="&#x2264;" horiz-adv-x="1046" 
d="M946 1333v-217l-641 -300l641 -299v-217l-887 419v195zM946 241v-209h-887v209h887z" />
    <glyph glyph-name="greaterequal" unicode="&#x2265;" horiz-adv-x="1046" 
d="M100 300v217l642 300l-641 299l-1 217l887 -419v-196zM100 32v209h887v-209h-887z" />
    <glyph glyph-name="yen" unicode="&#xa5;" horiz-adv-x="1046" 
d="M55 1365h230l252 -612l260 612h193l-252 -544h227v-126h-283l-61 -140h344v-125h-344v-430h-203v430h-322v125h321l-64 140h-257v126h204z" />
    <glyph glyph-name="mu1" unicode="&#xb5;" horiz-adv-x="1046" 
d="M161 -341v1351h209v-545q0 -202 44 -267t109 -65q71 0 111.5 66t40.5 266v545h209v-1010h-176v109q-51 -134 -182 -134q-104 0 -156 97v-413h-209z" />
    <glyph glyph-name="partialdiff" unicode="&#x2202;" horiz-adv-x="1012" 
d="M426 1138l-135 60q64 150 163.5 221.5t196.5 71.5q148 0 235 -139.5t87 -425.5q0 -437 -181.5 -695.5t-429.5 -258.5q-135 0 -220.5 92t-85.5 256q0 258 197 428t605 176q-2 250 -57 344.5t-148 94.5q-143 0 -227 -225zM854 796q-246 -12 -362 -70t-186 -180.5
t-70 -242.5q0 -88 53.5 -139.5t116.5 -51.5q144 0 279 169.5t169 514.5z" />
    <glyph glyph-name="summation" unicode="&#x2211;" horiz-adv-x="1460" 
d="M139 1536h1237v-164h-988l607 -796l-646 -841h1037v-161h-1264v187l620 808l-603 791v176z" />
    <glyph glyph-name="product" unicode="&#x220f;" horiz-adv-x="1685" 
d="M162 1536h1362v-1962h-191v1788h-978v-1788h-193v1962z" />
    <glyph glyph-name="pi1" unicode="&#xf006;" horiz-adv-x="940" 
d="M130 0v853h-101v157h882v-157h-101v-853h-209v853h-262v-853h-209z" />
    <glyph glyph-name="integral" unicode="&#x222b;" horiz-adv-x="561" 
d="M435 1863q54 0 89.5 -34.5t35.5 -72.5q0 -44 -25.5 -74t-66.5 -30q-35 0 -76 36q-23 20 -40 20q-40 0 -40 -64q0 -42 9 -145q37 -410 37 -665q0 -67 -12 -470t-77 -493.5t-151 -90.5q-49 0 -83.5 32.5t-34.5 88.5q0 43 24.5 71t65.5 28q40 0 70 -33q28 -31 48 -31
q39 0 39 61q0 42 -9 120q-37 316 -37 831q0 589 56 752t178 163z" />
    <glyph glyph-name="ordfeminine" unicode="&#xaa;" horiz-adv-x="628" 
d="M223 977l-155 18q41 178 254 178q92 0 146.5 -34t69 -82t14.5 -136v-199q0 -138 15 -176h-131q-7 41 -11 96q-69 -110 -190 -110q-83 0 -136.5 48.5t-53.5 133.5q0 222 327 222q9 0 22 -1q0 66 -16 95t-65 29q-76 0 -90 -82zM394 832q-20 3 -36 3q-148 0 -148 -112
q0 -77 70 -77q114 0 114 186z" />
    <glyph glyph-name="ordmasculine" unicode="&#xba;" horiz-adv-x="628" 
d="M580 858q0 -326 -266 -326q-132 0 -198.5 84t-66.5 237q0 320 266 320q130 0 197.5 -82.5t67.5 -232.5zM409 852q0 203 -95 203t-95 -203q0 -201 96 -201q94 0 94 201z" />
    <glyph glyph-name="Ohm" unicode="&#x2126;" horiz-adv-x="1573" 
d="M481 160q-346 201 -346 651q0 297 177 494.5t481 197.5q298 0 472.5 -200t174.5 -500q0 -416 -344 -643l364 7v-167h-575v179q165 75 256 240.5t91 357.5q0 232 -112 397.5t-329 165.5q-212 0 -328 -158t-116 -397q0 -223 93 -381.5t249 -224.5v-179h-577v167z" />
    <glyph glyph-name="ae" unicode="&#xe6;" horiz-adv-x="1430" 
d="M1380 474h-566q0 -201 55 -271.5t140 -70.5q135 0 173 187l186 -25q-66 -319 -362 -319q-214 0 -306 190q-112 -190 -332 -190q-150 0 -223 87t-73 204q0 128 65.5 213t176 115t299.5 30l1 53q0 205 -151 205q-135 0 -165 -161l-191 25q20 137 118 212.5t249 75.5
q191 0 269 -124q98 119 270 119q154 0 258.5 -131.5t108.5 -423.5zM1169 615q-7 267 -171 267q-161 0 -181 -267h352zM613 493q-37 4 -58 4q-269 0 -269 -215q0 -154 131 -154q87 0 142.5 83.5t55.5 227.5q0 18 -2 54z" />
    <glyph glyph-name="oslash" unicode="&#xf8;" 
d="M722 1100h121l-91 -182q116 -135 116 -404q0 -539 -395 -539q-101 0 -185 38l-59 -119h-121l93 185q-128 139 -128 426q0 255 99.5 392t293.5 137q117 0 200 -45zM585 857q-44 28 -111 28q-111 0 -158 -94t-47 -286q0 -158 31 -259zM370 145q53 -21 97 -21q115 0 160 98
t45 283q0 124 -24 236z" />
    <glyph glyph-name="questiondown" unicode="&#xbf;" horiz-adv-x="1012" 
d="M668 764h-223v246l223 -1v-245zM739 81l194 -37q-36 -425 -414 -425q-182 0 -286.5 102.5t-104.5 275.5q0 86 37.5 172.5t167.5 193.5q86 70 108 111.5t22 119.5l-1 52h189q-2 -159 -11.5 -206t-38 -87t-123.5 -120q-123 -105 -123 -242q0 -94 47.5 -143.5t129.5 -49.5
q193 0 207 283z" />
    <glyph glyph-name="exclamdown" unicode="&#xa1;" horiz-adv-x="698" 
d="M463 758h-228v252l228 -1v-251zM488 -356h-277l70 998h137z" />
    <glyph glyph-name="logicalnot" unicode="&#xac;" horiz-adv-x="1046" 
d="M734 0v338h-655v208h887v-546h-232z" />
    <glyph glyph-name="radical" unicode="&#x221a;" horiz-adv-x="1124" 
d="M1047 1869h74l-312 -1947l-496 1021l-198 -91l-34 64l301 151l405 -823z" />
    <glyph glyph-name="florin" unicode="&#x192;" horiz-adv-x="1046" 
d="M691 942h206l-25 -168h-208l-103 -648q-39 -243 -120.5 -336.5t-251.5 -93.5q-53 0 -106 10l28 174q36 -5 62 -5q97 0 131 51.5t60 213.5l102 634h-163l25 168h163q46 281 137.5 365.5t235.5 84.5q51 0 115 -13l-26 -167q-26 9 -62 9q-95 0 -134.5 -56.5t-65.5 -222.5z
" />
    <glyph glyph-name="approxequal" unicode="&#x2248;" horiz-adv-x="1046" 
d="M145 702l-117 76q63 149 132 205t164 56q72 0 220 -62q136 -56 188 -56q99 0 166 122l121 -71q-112 -252 -314 -252q-62 0 -239 72q-113 46 -158 46q-96 0 -163 -136zM145 322l-117 77q63 148 132.5 204.5t163.5 56.5q72 0 220 -62q136 -56 187 -56q100 0 167 122
l121 -71q-112 -252 -314 -252q-62 0 -239 72q-113 46 -159 46q-95 0 -162 -137z" />
    <glyph glyph-name="Delta" unicode="&#x2206;" horiz-adv-x="1253" 
d="M1226 0h-1200l628 1387zM990 82l-399 967l-440 -967h839z" />
    <glyph glyph-name="guillemotleft" unicode="&#xab;" horiz-adv-x="802" 
d="M713 198h-117l-193 327l193 328h117l-108 -328zM399 205h-117l-193 320l193 320h117l-108 -320z" />
    <glyph glyph-name="guillemotright" unicode="&#xbb;" horiz-adv-x="802" 
d="M89 853h117l193 -328l-193 -327h-117l108 327zM403 853h118l192 -328l-192 -327h-118l108 327z" />
    <glyph glyph-name="ellipsis" unicode="&#x2026;" horiz-adv-x="1466" 
d="M130 258h228v-258h-228v258zM619 258h228v-258h-228v258zM1108 258h228v-258h-228v258z" />
    <glyph glyph-name="nbspace" unicode="&#xa0;" horiz-adv-x="382" 
 />
    <glyph glyph-name="Agrave" unicode="&#xc0;" horiz-adv-x="1012" 
d="M387 1365h253l366 -1365h-229l-86 342h-399l-84 -342h-216zM646 520l-155 625l-154 -625h309zM694 1565l-76 -77l-353 222l108 136z" />
    <glyph glyph-name="Atilde" unicode="&#xc3;" horiz-adv-x="1012" 
d="M387 1365h253l366 -1365h-229l-86 342h-399l-84 -342h-216zM646 520l-155 625l-154 -625h309zM736 1702l85 -57q-89 -153 -204 -153q-53 0 -130 45q-70 40 -102 40q-49 0 -98 -74l-84 57q90 153 202 153q51 0 129 -45q74 -41 111 -41q48 0 91 75z" />
    <glyph glyph-name="Otilde" unicode="&#xd5;" horiz-adv-x="1152" 
d="M1067 683q0 -350 -125 -529t-363 -179q-239 0 -366 178.5t-127 529.5q0 348 126 527.5t366 179.5q237 0 363 -178.5t126 -528.5zM830 683q0 243 -56.5 382.5t-197.5 139.5t-197 -140t-56 -382q0 -238 55 -380t201 -142q137 0 194 137.5t57 384.5zM816 1702l85 -57
q-89 -153 -204 -153q-53 0 -130 45q-70 40 -102 40q-49 0 -98 -74l-84 57q90 153 202 153q51 0 129 -45q74 -41 111 -41q48 0 91 75z" />
    <glyph glyph-name="OE" unicode="&#x152;" horiz-adv-x="1640" 
d="M1615 1365v-181h-568v-390h446v-182h-446v-427h573v-185h-785v126q-96 -152 -267 -152q-214 0 -348.5 179.5t-134.5 522.5q0 362 136 538t356 176q164 0 266 -139v114h772zM830 1039q-74 164 -235 164q-158 0 -214 -149.5t-56 -399.5q0 -492 272 -492q167 0 233 184v693z
" />
    <glyph glyph-name="oe" unicode="&#x153;" horiz-adv-x="1465" 
d="M1414 474h-567q0 -208 56 -275t138 -67q138 0 176 189l190 -25q-76 -321 -373 -321q-186 0 -292 150q-100 -150 -280 -150t-284.5 130.5t-104.5 399.5q0 253 98 391t291 138q195 0 293 -151q108 151 283 151q173 0 272.5 -127t103.5 -433zM1202 615q2 138 -46 202.5
t-125 64.5q-161 0 -179 -267h350zM640 505q0 195 -42 283.5t-131 88.5t-130.5 -90t-41.5 -282q0 -190 40.5 -281t132.5 -91q89 0 130.5 88.5t41.5 283.5z" />
    <glyph glyph-name="endash" unicode="&#x2013;" horiz-adv-x="1046" 
d="M170 593h706v-161h-706v161z" />
    <glyph glyph-name="emdash" unicode="&#x2014;" horiz-adv-x="1291" 
d="M63 593h1165v-161h-1165v161z" />
    <glyph glyph-name="quotedblleft" unicode="&#x201c;" horiz-adv-x="768" 
d="M635 885h-217v248l138 256h99l-116 -250h96v-254zM329 885h-218v248l138 256h100l-117 -250h97v-254z" />
    <glyph glyph-name="quotedblright" unicode="&#x201d;" horiz-adv-x="768" 
d="M131 1365h218v-247l-139 -256h-99l117 249h-97v254zM438 1365h217v-247l-138 -256h-99l117 249h-97v254z" />
    <glyph glyph-name="quoteleft" unicode="&#x2018;" horiz-adv-x="453" 
d="M326 885h-218v248l138 256h100l-117 -250h97v-254z" />
    <glyph glyph-name="quoteright" unicode="&#x2019;" horiz-adv-x="453" 
d="M128 1365h218v-247l-139 -256h-99l117 249h-97v254z" />
    <glyph glyph-name="divide" unicode="&#xf7;" horiz-adv-x="1046" 
d="M624 868h-203v227h203v-227zM941 599h-837v167h837v-167zM624 270h-203v227h203v-227z" />
    <glyph glyph-name="lozenge" unicode="&#x25ca;" horiz-adv-x="1012" 
d="M549 1422l418 -713l-418 -709h-111l-391 709l391 713h111zM495 1325l-340 -616l340 -615l359 615z" />
    <glyph glyph-name="ydieresis" unicode="&#xff;" horiz-adv-x="733" 
d="M-1 1010h209l176 -694l181 694h188l-328 -1074q-36 -117 -66 -173t-85 -90.5t-142 -34.5q-52 0 -107 14v166q40 -7 73 -7q81 0 115 39.5t73 183.5zM112 1265q0 44 32.5 74t76.5 30q43 0 76 -29t33 -75q0 -45 -34 -73.5t-75 -28.5q-40 0 -74.5 28t-34.5 74zM430 1265
q0 43 32.5 73.5t76.5 30.5t76.5 -30t32.5 -74q0 -46 -34 -74t-75 -28t-75 28.5t-34 73.5z" />
    <glyph glyph-name="Ydieresis" unicode="&#x178;" horiz-adv-x="837" 
d="M-65 1365h245l251 -569l255 569h216l-379 -788v-577h-225v577zM162 1604q0 44 32.5 74t76.5 30q43 0 76 -29t33 -75q0 -45 -34 -73.5t-75 -28.5q-40 0 -74.5 28t-34.5 74zM480 1604q0 43 32.5 73.5t76.5 30.5t76.5 -30t32.5 -74q0 -46 -34 -74t-75 -28t-75 28.5t-34 73.5
z" />
    <glyph glyph-name="fraction" unicode="&#x2215;" horiz-adv-x="176" 
d="M348 1365h146l-666 -1365h-146z" />
    <glyph glyph-name="Euro" unicode="&#x20ac;" horiz-adv-x="1046" 
d="M1001 375q-54 -400 -415 -400q-400 0 -465 512h-101v123h93q-2 21 -2 68q0 38 2 55h-93v123h101q67 535 469 535q171 0 280 -101.5t131 -285.5l-221 -29q-26 248 -190 248q-197 0 -232 -367h265v-123h-271l-2 -69q0 -39 2 -54h271v-123h-265q31 -344 228 -344
q77 0 127.5 72t62.5 188z" />
    <glyph glyph-name="guilsinglleft" unicode="&#x2039;" horiz-adv-x="488" 
d="M399 198h-117l-193 327l193 328h117l-108 -328z" />
    <glyph glyph-name="guilsinglright" unicode="&#x203a;" horiz-adv-x="488" 
d="M89 853h117l193 -328l-193 -327h-117l108 327z" />
    <glyph glyph-name="fi" unicode="&#xfb01;" horiz-adv-x="977" 
d="M357 1010h177v-168h-177v-842h-204v842h-132v168h132q3 181 31.5 249.5t90.5 107t174 38.5q50 0 97 -8v-167q-27 4 -52 4q-65 0 -94.5 -22.5t-36 -56t-6.5 -145.5zM860 1146h-218v221h218v-221zM646 1010h209v-1010h-209v1010z" />
    <glyph glyph-name="fl" unicode="&#xfb02;" horiz-adv-x="977" 
d="M356 1010h177v-168h-177v-842h-204v842h-132v168h132q3 181 31.5 249.5t90.5 107t174 38.5q50 0 97 -8v-167q-27 4 -52 4q-65 0 -94.5 -22.5t-36 -56t-6.5 -145.5zM645 1365h209v-1365h-209v1365z" />
    <glyph glyph-name="daggerdbl" unicode="&#x2021;" horiz-adv-x="1046" 
d="M424 1365h198v-385h301v-178h-301v-581h301v-177h-301v-386h-198v386h-301v177h301v581h-301v178h301v385z" />
    <glyph glyph-name="periodcentered" unicode="&#x2219;" horiz-adv-x="489" 
d="M130 655h228v-258h-228v258z" />
    <glyph glyph-name="quotesinglbase" unicode="&#x201a;" horiz-adv-x="454" 
d="M128 254h218v-248l-139 -255h-99l117 249h-97v254z" />
    <glyph glyph-name="quotedblbase" unicode="&#x201e;" horiz-adv-x="768" 
d="M131 254h218v-248l-139 -255h-99l117 249h-97v254zM438 254h217v-248l-138 -255h-99l117 249h-97v254z" />
    <glyph glyph-name="perthousand" unicode="&#x2030;" horiz-adv-x="2024" 
d="M625 1024q0 -169 -73.5 -261t-194.5 -92t-195 91t-74 262q0 169 73.5 261t195.5 92q120 0 194 -90.5t74 -262.5zM466 1024q0 228 -109 228q-110 0 -110 -228q0 -227 109 -227q110 0 110 227zM966 1365h135l-666 -1365h-135zM1309 341q0 -169 -73.5 -261t-195.5 -92
q-121 0 -194.5 92t-73.5 261q0 170 74 261.5t194 91.5q121 0 195 -92t74 -261zM1150 341q0 228 -110 228q-109 0 -109 -233q0 -222 109 -222q110 0 110 227zM1937 341q0 -169 -73.5 -261t-195.5 -92q-121 0 -194.5 92t-73.5 261q0 170 74 261.5t195 91.5q120 0 194 -91.5
t74 -261.5zM1778 341q0 228 -109 228q-110 0 -110 -233q0 -222 109 -222q110 0 110 227z" />
    <glyph glyph-name="Acircumflex" unicode="&#xc2;" horiz-adv-x="1012" 
d="M387 1365h253l366 -1365h-229l-86 342h-399l-84 -342h-216zM646 520l-155 625l-154 -625h309zM152 1501l357 275l358 -275l-178 -14l-180 122l-179 -122z" />
    <glyph glyph-name="Ecircumflex" unicode="&#xca;" 
d="M131 1365h782v-181h-556v-390h436v-182h-436v-427h565v-185h-791v1365zM168 1501l357 275l358 -275l-178 -14l-180 122l-179 -122z" />
    <glyph glyph-name="Aacute" unicode="&#xc1;" horiz-adv-x="1012" 
d="M387 1365h253l366 -1365h-229l-86 342h-399l-84 -342h-216zM646 520l-155 625l-154 -625h309zM353 1557l321 281l108 -136l-353 -222z" />
    <glyph glyph-name="Edieresis" unicode="&#xcb;" 
d="M131 1365h782v-181h-556v-390h436v-182h-436v-427h565v-185h-791v1365zM254 1614q0 44 32.5 74t76.5 30q43 0 76 -29t33 -75q0 -45 -34 -73.5t-75 -28.5q-40 0 -74.5 28t-34.5 74zM572 1614q0 43 32.5 73.5t76.5 30.5t76.5 -30t32.5 -74q0 -46 -34 -74t-75 -28t-75 28.5
t-34 73.5z" />
    <glyph glyph-name="Egrave" unicode="&#xc8;" 
d="M131 1365h782v-181h-556v-390h436v-182h-436v-427h565v-185h-791v1365zM658 1557l-76 -77l-353 222l108 136z" />
    <glyph glyph-name="Iacute" unicode="&#xcd;" horiz-adv-x="488" 
d="M131 1365h226v-1365h-226v1365zM127 1557l321 281l108 -136l-353 -222z" />
    <glyph glyph-name="Icircumflex" unicode="&#xce;" horiz-adv-x="488" 
d="M131 1365h226v-1365h-226v1365zM-113 1501l357 275l358 -275l-178 -14l-180 122l-179 -122z" />
    <glyph glyph-name="Idieresis" unicode="&#xcf;" horiz-adv-x="488" 
d="M131 1365h226v-1365h-226v1365zM-24 1614q0 44 32.5 74t76.5 30q43 0 76 -29t33 -75q0 -45 -34 -73.5t-75 -28.5q-40 0 -74.5 28t-34.5 74zM294 1614q0 43 32.5 73.5t76.5 30.5t76.5 -30t32.5 -74q0 -46 -34 -74t-75 -28t-75 28.5t-34 73.5z" />
    <glyph glyph-name="Igrave" unicode="&#xcc;" horiz-adv-x="488" 
d="M131 1365h226v-1365h-226v1365zM392 1557l-76 -77l-353 222l108 136z" />
    <glyph glyph-name="Oacute" unicode="&#xd3;" horiz-adv-x="1152" 
d="M1067 683q0 -350 -125 -529t-363 -179q-239 0 -366 178.5t-127 529.5q0 348 126 527.5t366 179.5q237 0 363 -178.5t126 -528.5zM830 683q0 243 -56.5 382.5t-197.5 139.5t-197 -140t-56 -382q0 -238 55 -380t201 -142q137 0 194 137.5t57 384.5zM456 1557l321 281
l108 -136l-353 -222z" />
    <glyph glyph-name="Ocircumflex" unicode="&#xd4;" horiz-adv-x="1152" 
d="M1067 683q0 -350 -125 -529t-363 -179q-239 0 -366 178.5t-127 529.5q0 348 126 527.5t366 179.5q237 0 363 -178.5t126 -528.5zM830 683q0 243 -56.5 382.5t-197.5 139.5t-197 -140t-56 -382q0 -238 55 -380t201 -142q137 0 194 137.5t57 384.5zM226 1501l357 275
l358 -275l-178 -14l-180 122l-179 -122z" />
    <glyph glyph-name="Ograve" unicode="&#xd2;" horiz-adv-x="1152" 
d="M1067 683q0 -350 -125 -529t-363 -179q-239 0 -366 178.5t-127 529.5q0 348 126 527.5t366 179.5q237 0 363 -178.5t126 -528.5zM830 683q0 243 -56.5 382.5t-197.5 139.5t-197 -140t-56 -382q0 -238 55 -380t201 -142q137 0 194 137.5t57 384.5zM712 1557l-76 -77
l-353 222l108 136z" />
    <glyph glyph-name="Uacute" unicode="&#xda;" horiz-adv-x="1116" 
d="M121 1365h221v-847q0 -142 15 -209.5t68.5 -107t144.5 -39.5q86 0 134 32.5t68 92t20 235.5v843h203v-832q0 -200 -28.5 -308t-132 -179t-277.5 -71q-135 0 -234.5 44.5t-150.5 144t-51 354.5v847zM435 1557l321 281l108 -136l-353 -222z" />
    <glyph glyph-name="Ucircumflex" unicode="&#xdb;" horiz-adv-x="1116" 
d="M121 1365h221v-847q0 -142 15 -209.5t68.5 -107t144.5 -39.5q86 0 134 32.5t68 92t20 235.5v843h203v-832q0 -200 -28.5 -308t-132 -179t-277.5 -71q-135 0 -234.5 44.5t-150.5 144t-51 354.5v847zM201 1501l357 275l358 -275l-178 -14l-180 122l-179 -122z" />
    <glyph glyph-name="Ugrave" unicode="&#xd9;" horiz-adv-x="1116" 
d="M121 1365h221v-847q0 -142 15 -209.5t68.5 -107t144.5 -39.5q86 0 134 32.5t68 92t20 235.5v843h203v-832q0 -200 -28.5 -308t-132 -179t-277.5 -71q-135 0 -234.5 44.5t-150.5 144t-51 354.5v847zM687 1557l-76 -77l-353 222l108 136z" />
    <glyph glyph-name="dotlessi" unicode="&#x131;" horiz-adv-x="454" 
d="M123 1010h208v-1010h-208v1010z" />
    <glyph glyph-name="circumflex" unicode="&#x2c6;" horiz-adv-x="1024" 
d="M155 1152l357 275l358 -275l-178 -14l-180 122l-179 -122z" />
    <glyph glyph-name="tilde" unicode="&#x2dc;" horiz-adv-x="1024" 
d="M736 1369l85 -57q-89 -153 -204 -153q-53 0 -130 45q-70 40 -102 40q-49 0 -98 -74l-84 57q90 153 202 153q51 0 129 -45q74 -41 111 -41q48 0 91 75z" />
    <glyph glyph-name="macron" unicode="&#x2c9;" horiz-adv-x="1024" 
d="M235 1331h553v-131h-553v131z" />
    <glyph glyph-name="breve" unicode="&#x2d8;" horiz-adv-x="1024" 
d="M206 1382h140q31 -112 167 -112q134 0 165 112h141q-51 -244 -306 -244q-256 0 -307 244z" />
    <glyph glyph-name="dotaccent" unicode="&#x2d9;" horiz-adv-x="1024" 
d="M392 1265q0 50 35.5 84.5t84.5 34.5q50 0 85.5 -35t35.5 -84q0 -52 -37 -85t-84 -33q-42 0 -81 31t-39 87z" />
    <glyph glyph-name="ring" unicode="&#x2da;" horiz-adv-x="1024" 
d="M324 1301q0 80 56 135t132 55t132 -55t56 -135q0 -81 -58.5 -134t-129.5 -53q-70 0 -129 52.5t-59 134.5zM426 1302q0 -38 26.5 -62.5t59.5 -24.5t59.5 24.5t26.5 61.5q0 38 -25.5 64t-60.5 26q-34 0 -60 -25.5t-26 -63.5z" />
    <glyph glyph-name="cedilla" unicode="&#xb8;" horiz-adv-x="1024" 
d="M480 0h98l-33 -95h28q91 0 133 -44.5t42 -102.5q0 -70 -56.5 -118t-148.5 -48q-98 0 -197 63l28 73q82 -37 150 -37q81 0 81 63q0 78 -122 78q-16 0 -61 -2z" />
    <glyph glyph-name="hungarumlaut" unicode="&#x2dd;" horiz-adv-x="1024" 
d="M557 1459l110 -116l-277 -213l-63 68zM841 1459l110 -116l-277 -213l-63 68z" />
    <glyph glyph-name="ogonek" unicode="&#x2db;" horiz-adv-x="1024" 
d="M673 0q-87 -79 -87 -155q0 -100 131 -100q29 0 65 6l19 -79q-61 -23 -135 -23q-107 0 -164.5 48t-57.5 121q0 109 137 182h92z" />
    <glyph glyph-name="caron" unicode="&#x2c7;" horiz-adv-x="1024" 
d="M155 1396l178 14l179 -122l180 122l178 -14l-358 -275z" />
    <glyph glyph-name="Lslash" unicode="&#x141;" horiz-adv-x="837" 
d="M131 1365h226v-534l241 241v-209l-241 -241v-431h483v-191h-709v472l-116 -116v210l116 116v683z" />
    <glyph glyph-name="lslash" unicode="&#x142;" horiz-adv-x="488" 
d="M140 1365h208v-501l130 130v-167l-130 -130v-697h-208v567l-130 -130v167l130 130v631z" />
    <glyph glyph-name="Scaron" unicode="&#x160;" horiz-adv-x="1047" 
d="M944 1060l-193 -67q-34 108 -89.5 159.5t-151.5 51.5q-89 0 -137.5 -52.5t-48.5 -120.5q0 -75 54.5 -119.5t217.5 -106.5q139 -53 214 -101t121.5 -128.5t46.5 -186.5q0 -172 -121.5 -293t-340.5 -121q-378 0 -468 382l202 57q53 -252 276 -252q109 0 165.5 56.5
t56.5 139.5q0 61 -39 113t-194 111q-164 62 -236.5 105t-123.5 127t-51 191q0 163 113.5 274t301.5 111q333 0 425 -330zM180 1745l178 14l179 -122l180 122l178 -14l-358 -275z" />
    <glyph glyph-name="scaron" unicode="&#x161;" horiz-adv-x="803" 
d="M731 774l-163 -44q-45 152 -171 152q-58 0 -93.5 -36t-35.5 -89q0 -60 36 -88t165 -70q159 -53 229 -119.5t70 -185.5q0 -134 -100 -226.5t-270 -92.5q-321 0 -364 294l177 33q34 -174 193 -174q81 0 120.5 40t39.5 95q0 38 -27 75.5t-151 77.5q-119 38 -179.5 71
t-99.5 95.5t-39 141.5q0 129 94 219.5t243 90.5q253 0 326 -260zM58 1396l178 14l179 -122l180 122l178 -14l-358 -275z" />
    <glyph glyph-name="Zcaron" unicode="&#x17d;" horiz-adv-x="872" 
d="M38 1365h819v-158l-604 -1017h620v-190h-872v175l599 1005h-562v185zM92 1745l178 14l179 -122l180 122l178 -14l-358 -275z" />
    <glyph glyph-name="zcaron" unicode="&#x17e;" horiz-adv-x="698" 
d="M66 1010h614v-127l-425 -725h429v-158h-654v158l410 694h-374v158zM26 1396l178 14l179 -122l180 122l178 -14l-358 -275z" />
    <glyph glyph-name="brokenbar" unicode="&#xa6;" horiz-adv-x="1024" 
d="M396 1365h232v-701h-232v701zM396 314h232v-655h-232v655z" />
    <glyph glyph-name="Eth" unicode="&#xd0;" horiz-adv-x="1151" 
d="M132 1365h307q340 0 483.5 -190t143.5 -471q0 -199 -61.5 -356t-188 -252.5t-360.5 -95.5h-324v619h-116v171h116v575zM358 1184v-394h253v-171h-253v-438h94q197 0 286 136t89 365q0 502 -375 502h-94z" />
    <glyph glyph-name="eth" unicode="&#xf0;" horiz-adv-x="907" 
d="M540 1351l130 78l56 -92l-129 -78q133 -224 193.5 -401t60.5 -366q0 -249 -102 -383t-291 -134q-162 0 -248 78t-120 194t-34 258q0 262 100 395.5t246 133.5q80 0 142 -52q-49 117 -91 191l-136 -82l-56 92l140 84l-63 112l132 81zM630 505q0 213 -47.5 292.5
t-128.5 79.5q-176 0 -176 -372q0 -190 41 -281t135 -91q93 0 134.5 92.5t41.5 279.5z" />
    <glyph glyph-name="Yacute" unicode="&#xdd;" horiz-adv-x="837" 
d="M-65 1365h245l251 -569l255 569h216l-379 -788v-577h-225v577zM300 1557l321 281l108 -136l-353 -222z" />
    <glyph glyph-name="yacute" unicode="&#xfd;" horiz-adv-x="733" 
d="M-1 1010h209l176 -694l181 694h188l-328 -1074q-36 -117 -66 -173t-85 -90.5t-142 -34.5q-52 0 -107 14v166q40 -7 73 -7q81 0 115 39.5t73 183.5zM214 1208l321 281l108 -136l-353 -222z" />
    <glyph glyph-name="Thorn" unicode="&#xde;" horiz-adv-x="1012" 
d="M131 1365h226v-211h112q164 0 265 -31.5t169 -136.5t68 -249q0 -136 -56 -233t-150.5 -140t-290.5 -43h-117v-321h-226v1365zM357 979v-477h112q150 0 207.5 56t57.5 183q0 93 -38 151.5t-83.5 72.5t-143.5 14h-112z" />
    <glyph glyph-name="thorn" unicode="&#xfe;" horiz-adv-x="977" 
d="M122 1365h207v-511q81 173 240 173q146 0 241 -132t95 -382q0 -221 -85.5 -376t-265.5 -155q-142 0 -223 123l-2 -447h-207v1707zM329 422q0 -97 14.5 -151.5t59.5 -93t102 -38.5q178 0 178 374q0 362 -168 362q-80 0 -133 -86t-53 -199v-168z" />
    <glyph glyph-name="minus" unicode="&#x2212;" horiz-adv-x="1046" 
d="M941 599h-837v167h837v-167z" />
    <glyph glyph-name="multiply" unicode="&#xd7;" horiz-adv-x="1046" 
d="M522 806l250 249l123 -123l-249 -249l249 -249l-123 -123l-250 248l-249 -248l-123 123l249 249l-249 249l123 123z" />
    <glyph glyph-name="onesuperior" unicode="&#xb9;" horiz-adv-x="696" 
d="M347 1373h126v-702h139v-125h-456v125h150v496q-70 -63 -154 -102v153q116 56 195 155z" />
    <glyph glyph-name="twosuperior" unicode="&#xb2;" horiz-adv-x="696" 
d="M201 1081l-157 30q47 269 292 269q127 0 199.5 -70t72.5 -176q0 -214 -361 -444h367l-8 -144h-559v134q227 181 305.5 275t78.5 171q0 118 -105 118q-109 0 -125 -163z" />
    <glyph glyph-name="threesuperior" unicode="&#xb3;" horiz-adv-x="696" 
d="M199 1132l-148 32q63 216 283 216q125 0 195 -61.5t70 -161.5q0 -123 -127 -178q151 -52 151 -199q0 -113 -81.5 -180.5t-211.5 -67.5q-261 0 -302 236l152 33q23 -138 140 -138q122 0 122 126q0 122 -156 122h-68v120h68q70 0 105 23t35 86q0 112 -103 112
q-95 0 -124 -120z" />
    <glyph glyph-name="onehalf" unicode="&#xbd;" horiz-adv-x="1569" 
d="M330 1373h126v-702h139v-125h-456v125h150v496q-70 -63 -154 -102v153q116 56 195 155zM1019 1365h146l-666 -1365h-146zM1036 535l-157 30q47 269 292 269q127 0 199.5 -70t72.5 -176q0 -214 -361 -444h367l-8 -144h-559v134q227 181 305.5 275t78.5 171q0 118 -105 118
q-109 0 -125 -163z" />
    <glyph glyph-name="onequarter" unicode="&#xbc;" horiz-adv-x="1569" 
d="M307 1373h126v-702h139v-125h-456v125h150v496q-70 -63 -154 -102v153q116 56 195 155zM1045 1365h146l-666 -1365h-146zM1208 834h186v-518h106v-127h-106v-189h-167v189h-337v114zM1236 307v378l-208 -378h208z" />
    <glyph glyph-name="threequarters" unicode="&#xbe;" horiz-adv-x="1569" 
d="M232 1132l-148 32q63 216 283 216q125 0 195 -61.5t70 -161.5q0 -123 -127 -178q151 -52 151 -199q0 -113 -81.5 -180.5t-211.5 -67.5q-261 0 -302 236l152 33q23 -138 140 -138q122 0 122 126q0 122 -156 122h-68v120h68q70 0 105 23t35 86q0 112 -103 112
q-95 0 -124 -120zM1045 1365h146l-666 -1365h-146zM1197 834h186v-518h106v-127h-106v-189h-167v189h-337v114zM1225 307v378l-208 -378h208z" />
    <glyph glyph-name="franc" unicode="&#x20a3;" horiz-adv-x="872" 
d="M357 400h200v-171h-200v-229h-225v229h-103v171h103v965h758v-181h-533v-408h427v-181h-427v-195z" />
    <glyph glyph-name="Gbreve" unicode="&#x11e;" horiz-adv-x="1152" 
d="M595 700h456v-710h-120l-30 173q-104 -188 -329 -188q-229 0 -358 185.5t-129 503.5q0 335 127.5 530.5t391.5 195.5q368 0 440 -416l-204 -51q-36 176 -97 228t-144 52q-275 0 -275 -519q0 -522 282 -522q234 0 234 357h-245v181zM319 1738h140q31 -112 167 -112
q134 0 165 112h141q-51 -244 -306 -244q-256 0 -307 244z" />
    <glyph glyph-name="gbreve" unicode="&#x11f;" horiz-adv-x="907" 
d="M908 1171v-153q-29 6 -48 6q-92 0 -109 -111q76 -96 76 -217q0 -137 -95 -231t-256 -94q-61 0 -128 18q-76 -29 -76 -88q0 -51 40.5 -66t214.5 -24q150 -8 226 -28t121.5 -81.5t45.5 -161.5q0 -154 -119 -233.5t-339 -79.5q-212 0 -309.5 69.5t-97.5 184.5q0 146 147 195
q-110 61 -110 165q0 132 149 203q-130 86 -130 259q0 148 99 239.5t255 91.5q102 0 191 -44q16 105 60.5 145.5t129.5 40.5q25 0 62 -5zM612 699q0 198 -137 198q-149 0 -149 -200q0 -194 144 -194q142 0 142 196zM331 42q-87 -43 -87 -129q0 -72 56 -106t186 -34
q240 0 240 139q0 68 -45.5 93.5t-179.5 29.5q-113 4 -170 7zM174 1382h140q31 -112 167 -112q134 0 165 112h141q-51 -244 -306 -244q-256 0 -307 244z" />
    <glyph glyph-name="Idot" unicode="&#x130;" horiz-adv-x="489" 
d="M131 1365h226v-1365h-226v1365zM124 1604q0 50 35.5 84.5t84.5 34.5q50 0 85.5 -35t35.5 -84q0 -52 -37 -85t-84 -33q-42 0 -81 31t-39 87z" />
    <glyph glyph-name="Scedilla" unicode="&#x15e;" horiz-adv-x="1047" 
d="M944 1060l-193 -67q-34 108 -89.5 159.5t-151.5 51.5q-89 0 -137.5 -52.5t-48.5 -120.5q0 -75 54.5 -119.5t217.5 -106.5q139 -53 214 -101t121.5 -128.5t46.5 -186.5q0 -173 -121 -291.5t-324 -122.5l-26 -78q19 1 29 1q88 0 134 -43.5t46 -107.5q0 -72 -57 -122
t-154 -50q-100 0 -203 65l29 77q86 -38 154 -38q80 0 80 62q0 30 -21 49.5t-46.5 23t-118.5 5.5l56 162q-318 50 -387 376l202 57q53 -252 276 -252q109 0 165.5 56.5t56.5 139.5q0 61 -39 113t-194 111q-164 62 -236.5 105t-123.5 127t-51 191q0 163 113.5 274t301.5 111
q333 0 425 -330z" />
    <glyph glyph-name="scedilla" unicode="&#x15f;" horiz-adv-x="803" 
d="M411 -25l-24 -70h28q87 0 131 -42.5t44 -104.5q0 -71 -56.5 -118.5t-148.5 -47.5q-98 0 -197 63l28 73q82 -37 150 -37q81 0 81 63q0 78 -122 78q-16 0 -61 -2l53 150q-249 48 -283 289l177 33q34 -174 193 -174q81 0 120.5 40t39.5 95q0 38 -27 75.5t-151 77.5
q-119 38 -179.5 71t-99.5 95.5t-39 141.5q0 129 94 219.5t243 90.5q253 0 326 -260l-163 -44q-45 152 -171 152q-58 0 -93.5 -36t-35.5 -89q0 -60 36 -88t165 -70q159 -53 229 -119.5t70 -185.5q0 -131 -95.5 -222.5t-261.5 -96.5z" />
    <glyph glyph-name="Cacute" unicode="&#x106;" horiz-adv-x="1081" 
d="M817 459l208 -29q-64 -455 -447 -455q-249 0 -371 191t-122 511q0 345 129 529t372 184q376 0 441 -466l-210 -31q-34 310 -230 310q-262 0 -262 -539q0 -502 262 -502q105 0 156.5 76.5t73.5 220.5zM454 1557l321 281l108 -136l-353 -222z" />
    <glyph glyph-name="cacute" unicode="&#x107;" horiz-adv-x="837" 
d="M823 670l-201 -22q-15 132 -51 176.5t-102 44.5q-93 0 -135 -85.5t-42 -300.5q0 -336 177 -336q136 0 153 219l201 -18q-41 -373 -369 -373q-194 0 -287.5 140t-93.5 387q0 260 101 396t294 136q311 0 355 -364zM348 1208l321 281l108 -136l-353 -222z" />
    <glyph glyph-name="Ccaron" unicode="&#x10c;" horiz-adv-x="1081" 
d="M817 459l208 -29q-64 -455 -447 -455q-249 0 -371 191t-122 511q0 345 129 529t372 184q376 0 441 -466l-210 -31q-34 310 -230 310q-262 0 -262 -539q0 -502 262 -502q105 0 156.5 76.5t73.5 220.5zM238 1745l178 14l179 -122l180 122l178 -14l-358 -275z" />
    <glyph glyph-name="ccaron" unicode="&#x10d;" horiz-adv-x="837" 
d="M823 670l-201 -22q-15 132 -51 176.5t-102 44.5q-93 0 -135 -85.5t-42 -300.5q0 -336 177 -336q136 0 153 219l201 -18q-41 -373 -369 -373q-194 0 -287.5 140t-93.5 387q0 260 101 396t294 136q311 0 355 -364zM119 1396l178 14l179 -122l180 122l178 -14l-358 -275z
" />
    <glyph glyph-name="dmacron" unicode="&#x111;" horiz-adv-x="977" 
d="M652 1365h204v-118h109v-116h-109v-1131h-191v153q-73 -171 -251 -171q-150 0 -246 127.5t-96 390.5q0 249 94.5 388t251.5 139q171 0 239 -150v254h-224v116h219v118zM649 594q0 156 -59 218.5t-122 62.5q-174 0 -174 -356q0 -380 176 -380q68 0 123.5 63t55.5 219v173z
" />
    <glyph glyph-name="sfthyphen" unicode="&#xad;" horiz-adv-x="593" 
d="M80 596h432v-167h-432v167z" />
    <glyph glyph-name="overscore" unicode="&#xaf;" horiz-adv-x="1024" 
d="M0 1811h1024v-209h-1024v209z" />
    <glyph glyph-name="middot" unicode="&#xb7;" horiz-adv-x="489" 
d="M130 655h228v-258h-228v258z" />
    <glyph glyph-name="Amacron" unicode="&#x100;" horiz-adv-x="1012" 
d="M387 1365h253l366 -1365h-229l-86 342h-399l-84 -342h-216zM646 520l-155 625l-154 -625h309zM235 1671h553v-131h-553v131z" />
    <glyph glyph-name="amacron" unicode="&#x101;" 
d="M310 724l-201 25q20 135 124.5 210t256.5 75q136 0 217.5 -54.5t102.5 -129.5t21 -227v-344q0 -209 18 -279h-197q-13 55 -13 168q-95 -193 -284 -193q-128 0 -205.5 78.5t-77.5 213.5q0 165 113.5 261t393.5 96q14 0 44 -1v41q0 108 -32.5 163t-116.5 55
q-137 0 -164 -158zM623 492q-40 4 -61 4q-272 0 -272 -213q0 -155 135 -155q79 0 138.5 84t59.5 231v49zM208 1331h553v-131h-553v131z" />
    <glyph glyph-name="Abreve" unicode="&#x102;" horiz-adv-x="1012" 
d="M387 1365h253l366 -1365h-229l-86 342h-399l-84 -342h-216zM646 520l-155 625l-154 -625h309zM212 1738h140q31 -112 167 -112q134 0 165 112h141q-51 -244 -306 -244q-256 0 -307 244z" />
    <glyph glyph-name="abreve" unicode="&#x103;" 
d="M310 724l-201 25q20 135 124.5 210t256.5 75q136 0 217.5 -54.5t102.5 -129.5t21 -227v-344q0 -209 18 -279h-197q-13 55 -13 168q-95 -193 -284 -193q-128 0 -205.5 78.5t-77.5 213.5q0 165 113.5 261t393.5 96q14 0 44 -1v41q0 108 -32.5 163t-116.5 55
q-137 0 -164 -158zM623 492q-40 4 -61 4q-272 0 -272 -213q0 -155 135 -155q79 0 138.5 84t59.5 231v49zM178 1382h140q31 -112 167 -112q134 0 165 112h141q-51 -244 -306 -244q-256 0 -307 244z" />
    <glyph glyph-name="Aogonek" unicode="&#x104;" horiz-adv-x="1012" 
d="M387 1365h253l366 -1365q-89 -83 -89 -159q0 -103 137 -103q34 0 65 5l20 -81q-65 -24 -138 -24q-113 0 -172 50.5t-59 123.5q0 113 142 188h-135l-86 342h-399l-84 -342h-216zM646 520l-155 625l-154 -625h309z" />
    <glyph glyph-name="aogonek" unicode="&#x105;" 
d="M310 724l-201 25q20 135 124.5 210t256.5 75q136 0 217.5 -54.5t102.5 -129.5t21 -227v-344q0 -209 18 -279q-87 -80 -87 -155q0 -100 131 -100q29 0 65 6l19 -79q-61 -23 -136 -23q-106 0 -163.5 48t-57.5 121q0 109 137 182h-105q-13 55 -13 168q-95 -193 -284 -193
q-128 0 -205.5 78.5t-77.5 213.5q0 165 113.5 261t393.5 96q14 0 44 -1v41q0 108 -32.5 163t-116.5 55q-137 0 -164 -158zM623 492q-40 4 -61 4q-272 0 -272 -213q0 -155 135 -155q79 0 138.5 84t59.5 231v49z" />
    <glyph glyph-name="Ccircumflex" unicode="&#x108;" horiz-adv-x="1081" 
d="M817 459l208 -29q-64 -455 -447 -455q-249 0 -371 191t-122 511q0 345 129 529t372 184q376 0 441 -466l-210 -31q-34 310 -230 310q-262 0 -262 -539q0 -502 262 -502q105 0 156.5 76.5t73.5 220.5zM238 1501l357 275l358 -275l-178 -14l-180 122l-179 -122z" />
    <glyph glyph-name="ccircumflex" unicode="&#x109;" horiz-adv-x="837" 
d="M823 670l-201 -22q-15 132 -51 176.5t-102 44.5q-93 0 -135 -85.5t-42 -300.5q0 -336 177 -336q136 0 153 219l201 -18q-41 -373 -369 -373q-194 0 -287.5 140t-93.5 387q0 260 101 396t294 136q311 0 355 -364zM118 1152l357 275l358 -275l-178 -14l-180 122l-179 -122z
" />
    <glyph glyph-name="Cdot" unicode="&#x10a;" horiz-adv-x="1081" 
d="M817 459l208 -29q-64 -455 -447 -455q-249 0 -371 191t-122 511q0 345 129 529t372 184q376 0 441 -466l-210 -31q-34 310 -230 310q-262 0 -262 -539q0 -502 262 -502q105 0 156.5 76.5t73.5 220.5zM475 1604q0 50 35.5 84.5t84.5 34.5q50 0 85.5 -35t35.5 -84
q0 -52 -37 -85t-84 -33q-42 0 -81 31t-39 87z" />
    <glyph glyph-name="cdot" unicode="&#x10b;" horiz-adv-x="837" 
d="M823 670l-201 -22q-15 132 -51 176.5t-102 44.5q-93 0 -135 -85.5t-42 -300.5q0 -336 177 -336q136 0 153 219l201 -18q-41 -373 -369 -373q-194 0 -287.5 140t-93.5 387q0 260 101 396t294 136q311 0 355 -364zM356 1265q0 50 35.5 84.5t84.5 34.5q50 0 85.5 -35
t35.5 -84q0 -52 -37 -85t-84 -33q-42 0 -81 31t-39 87z" />
    <glyph glyph-name="Dcaron" unicode="&#x10e;" horiz-adv-x="1151" 
d="M132 1365h307q223 0 356.5 -79t202 -235t68.5 -346q0 -200 -61.5 -356.5t-188 -252.5t-360.5 -96h-324v1365zM358 1184v-1003h94q197 0 286 136.5t89 364.5q0 502 -375 502h-94zM164 1745l178 14l179 -122l180 122l178 -14l-358 -275z" />
    <glyph glyph-name="dcaron" unicode="&#x10f;" horiz-adv-x="1142" 
d="M649 1365h207v-1365h-191v153q-73 -171 -251 -171q-171 0 -256.5 143t-85.5 375q0 249 94.5 388t251.5 139q165 0 231 -134v472zM649 594q0 156 -59 218.5t-122 62.5q-174 0 -174 -356q0 -380 176 -380q68 0 123.5 63t55.5 219v173zM979 1365h191l-147 -382h-95z" />
    <glyph glyph-name="Dslash" unicode="&#x110;" horiz-adv-x="1151" 
d="M132 1365h307q340 0 483.5 -190t143.5 -471q0 -199 -61.5 -356t-188 -252.5t-360.5 -95.5h-324v619h-116v171h116v575zM358 1184v-394h253v-171h-253v-438h94q197 0 286 136t89 365q0 502 -375 502h-94z" />
    <glyph glyph-name="Emacron" unicode="&#x112;" 
d="M131 1365h782v-181h-556v-390h436v-182h-436v-427h565v-185h-791v1365zM245 1671h553v-131h-553v131z" />
    <glyph glyph-name="emacron" unicode="&#x113;" horiz-adv-x="907" 
d="M857 474h-571q0 -205 55.5 -273.5t139.5 -68.5q140 0 177 189l190 -25q-75 -321 -374 -321q-183 0 -292 131t-109 384q0 260 110 402t294 142q129 0 217 -71t124 -186.5t39 -302.5zM644 615q0 267 -174 267q-163 0 -179 -267h353zM235 1331h553v-131h-553v131z" />
    <glyph glyph-name="Ebreve" unicode="&#x114;" 
d="M131 1365h782v-181h-556v-390h436v-182h-436v-427h565v-185h-791v1365zM222 1738h140q31 -112 167 -112q134 0 165 112h141q-51 -244 -306 -244q-256 0 -307 244z" />
    <glyph glyph-name="ebreve" unicode="&#x115;" horiz-adv-x="907" 
d="M857 474h-571q0 -205 55.5 -273.5t139.5 -68.5q140 0 177 189l190 -25q-75 -321 -374 -321q-183 0 -292 131t-109 384q0 260 110 402t294 142q129 0 217 -71t124 -186.5t39 -302.5zM644 615q0 267 -174 267q-163 0 -179 -267h353zM181 1382h140q31 -112 167 -112
q134 0 165 112h141q-51 -244 -306 -244q-256 0 -307 244z" />
    <glyph glyph-name="Edot" unicode="&#x116;" 
d="M131 1365h782v-181h-556v-390h436v-182h-436v-427h565v-185h-791v1365zM407 1604q0 50 35.5 84.5t84.5 34.5q50 0 85.5 -35t35.5 -84q0 -52 -37 -85t-84 -33q-42 0 -81 31t-39 87z" />
    <glyph glyph-name="edot" unicode="&#x117;" horiz-adv-x="907" 
d="M857 474h-571q0 -205 55.5 -273.5t139.5 -68.5q140 0 177 189l190 -25q-75 -321 -374 -321q-183 0 -292 131t-109 384q0 260 110 402t294 142q129 0 217 -71t124 -186.5t39 -302.5zM644 615q0 267 -174 267q-163 0 -179 -267h353zM367 1265q0 50 35.5 84.5t84.5 34.5
q50 0 85.5 -35t35.5 -84q0 -52 -37 -85t-84 -33q-42 0 -81 31t-39 87z" />
    <glyph glyph-name="Eogonek" unicode="&#x118;" 
d="M131 1365h782v-181h-556v-390h436v-182h-436v-427h565v-185q-90 -83 -90 -160q0 -102 138 -102q33 0 64 5l21 -81q-65 -24 -139 -24q-112 0 -171 50t-59 125q0 112 141 187h-696v1365z" />
    <glyph glyph-name="eogonek" unicode="&#x119;" horiz-adv-x="907" 
d="M795 -236l19 -79q-61 -22 -136 -22q-107 0 -164 48.5t-57 118.5q0 87 98 152q-62 -8 -94 -8q-170 0 -279 131.5t-109 384.5q0 260 110 402t294 142q129 0 217 -71t124 -186.5t39 -302.5h-571q0 -205 55.5 -273.5t139.5 -68.5q140 0 177 189l190 -25q-26 -119 -69.5 -175
t-91.5 -97q-89 -79 -89 -162q0 -103 132 -103q31 0 65 5zM644 615q0 267 -174 267q-163 0 -179 -267h353z" />
    <glyph glyph-name="Ecaron" unicode="&#x11a;" 
d="M131 1365h782v-181h-556v-390h436v-182h-436v-427h565v-185h-791v1365zM168 1745l178 14l179 -122l180 122l178 -14l-358 -275z" />
    <glyph glyph-name="ecaron" unicode="&#x11b;" horiz-adv-x="907" 
d="M857 474h-571q0 -205 55.5 -273.5t139.5 -68.5q140 0 177 189l190 -25q-75 -321 -374 -321q-183 0 -292 131t-109 384q0 260 110 402t294 142q129 0 217 -71t124 -186.5t39 -302.5zM644 615q0 267 -174 267q-163 0 -179 -267h353zM130 1396l178 14l179 -122l180 122
l178 -14l-358 -275z" />
    <glyph glyph-name="Gcircumflex" unicode="&#x11c;" horiz-adv-x="1152" 
d="M595 700h456v-710h-120l-30 173q-104 -188 -329 -188q-229 0 -358 185.5t-129 503.5q0 335 127.5 530.5t391.5 195.5q368 0 440 -416l-204 -51q-36 176 -97 228t-144 52q-275 0 -275 -519q0 -522 282 -522q234 0 234 357h-245v181zM259 1501l357 275l358 -275l-178 -14
l-180 122l-179 -122z" />
    <glyph glyph-name="gcircumflex" unicode="&#x11d;" horiz-adv-x="907" 
d="M908 1171v-153q-29 6 -48 6q-92 0 -109 -111q76 -96 76 -217q0 -137 -95 -231t-256 -94q-61 0 -128 18q-76 -29 -76 -88q0 -51 40.5 -66t214.5 -24q150 -8 226 -28t121.5 -81.5t45.5 -161.5q0 -154 -119 -233.5t-339 -79.5q-212 0 -309.5 69.5t-97.5 184.5q0 146 147 195
q-110 61 -110 165q0 132 149 203q-130 86 -130 259q0 148 99 239.5t255 91.5q102 0 191 -44q16 105 60.5 145.5t129.5 40.5q25 0 62 -5zM612 699q0 198 -137 198q-149 0 -149 -200q0 -194 144 -194q142 0 142 196zM331 42q-87 -43 -87 -129q0 -72 56 -106t186 -34
q240 0 240 139q0 68 -45.5 93.5t-179.5 29.5q-113 4 -170 7zM118 1214l357 275l358 -275l-178 -14l-180 122l-179 -122z" />
    <glyph glyph-name="Gdot" unicode="&#x120;" horiz-adv-x="1152" 
d="M595 700h456v-710h-120l-30 173q-104 -188 -329 -188q-229 0 -358 185.5t-129 503.5q0 335 127.5 530.5t391.5 195.5q368 0 440 -416l-204 -51q-36 176 -97 228t-144 52q-275 0 -275 -519q0 -522 282 -522q234 0 234 357h-245v181zM489 1604q0 50 35.5 84.5t84.5 34.5
q50 0 85.5 -35t35.5 -84q0 -52 -37 -85t-84 -33q-42 0 -81 31t-39 87z" />
    <glyph glyph-name="gdot" unicode="&#x121;" horiz-adv-x="907" 
d="M908 1171v-153q-29 6 -48 6q-92 0 -109 -111q76 -96 76 -217q0 -137 -95 -231t-256 -94q-61 0 -128 18q-76 -29 -76 -88q0 -51 40.5 -66t214.5 -24q150 -8 226 -28t121.5 -81.5t45.5 -161.5q0 -154 -119 -233.5t-339 -79.5q-212 0 -309.5 69.5t-97.5 184.5q0 146 147 195
q-110 61 -110 165q0 132 149 203q-130 86 -130 259q0 148 99 239.5t255 91.5q102 0 191 -44q16 105 60.5 145.5t129.5 40.5q25 0 62 -5zM612 699q0 198 -137 198q-149 0 -149 -200q0 -194 144 -194q142 0 142 196zM331 42q-87 -43 -87 -129q0 -72 56 -106t186 -34
q240 0 240 139q0 68 -45.5 93.5t-179.5 29.5q-113 4 -170 7zM360 1265q0 50 35.5 84.5t84.5 34.5q50 0 85.5 -35t35.5 -84q0 -52 -37 -85t-84 -33q-42 0 -81 31t-39 87z" />
    <glyph glyph-name="Gcedilla" unicode="&#x122;" horiz-adv-x="1152" 
d="M595 700h456v-710h-120l-30 173q-104 -188 -329 -188q-229 0 -358 185.5t-129 503.5q0 335 127.5 530.5t391.5 195.5q368 0 440 -416l-204 -51q-36 176 -97 228t-144 52q-275 0 -275 -519q0 -522 282 -522q234 0 234 357h-245v181zM580 -109h191l-147 -369h-95z" />
    <glyph glyph-name="gcedilla" unicode="&#x123;" horiz-adv-x="907" 
d="M565 1140h-192l147 369h95zM908 1171v-153q-29 6 -48 6q-92 0 -109 -111q76 -96 76 -217q0 -137 -95 -231t-256 -94q-61 0 -128 18q-76 -29 -76 -88q0 -51 40.5 -66t214.5 -24q150 -8 226 -28t121.5 -81.5t45.5 -161.5q0 -154 -119 -233.5t-339 -79.5q-212 0 -309.5 69.5
t-97.5 184.5q0 146 147 195q-110 61 -110 165q0 132 149 203q-130 86 -130 259q0 148 99 239.5t255 91.5q102 0 191 -44q16 105 60.5 145.5t129.5 40.5q25 0 62 -5zM612 699q0 198 -137 198q-149 0 -149 -200q0 -194 144 -194q142 0 142 196zM331 42q-87 -43 -87 -129
q0 -72 56 -106t186 -34q240 0 240 139q0 68 -45.5 93.5t-179.5 29.5q-113 4 -170 7z" />
    <glyph glyph-name="Hcircumflex" unicode="&#x124;" horiz-adv-x="1116" 
d="M131 1365h226v-566h402v566h226v-1365h-226v608h-402v-608h-226v1365zM201 1501l357 275l358 -275l-178 -14l-180 122l-179 -122z" />
    <glyph glyph-name="hcircumflex" unicode="&#x125;" 
d="M122 1365h209v-489q71 158 241 158q87 0 146.5 -40t83 -106.5t23.5 -251.5v-636h-208v636q0 158 -36 194.5t-89 36.5q-161 0 -161 -289v-578h-209v1365zM-116 1472l357 275l358 -275l-178 -14l-180 122l-179 -122z" />
    <glyph glyph-name="Hbar" unicode="&#x126;" horiz-adv-x="1116" 
d="M132 1365h225v-184h403v184h225v-184h137v-190h-137v-991h-225v608h-403v-608h-225v991h-137v190h137v184zM357 799h403v192h-403v-192z" />
    <glyph glyph-name="hbar" unicode="&#x127;" 
d="M332 1277h389v-161h-389v-240q71 158 241 158q86 0 145.5 -40t83.5 -106.5t24 -251.5v-636h-209v636q0 158 -35.5 194.5t-88.5 36.5q-161 0 -161 -289v-578h-209v1116h-174v161h174v88h209v-88z" />
    <glyph glyph-name="Itilde" unicode="&#x128;" horiz-adv-x="488" 
d="M131 1365h226v-1365h-226v1365zM468 1702l85 -57q-89 -153 -204 -153q-53 0 -130 45q-70 40 -102 40q-49 0 -98 -74l-84 57q90 153 202 153q51 0 129 -45q74 -41 111 -41q48 0 91 75z" />
    <glyph glyph-name="itilde" unicode="&#x129;" horiz-adv-x="454" 
d="M123 1010h208v-1010h-208v1010zM451 1369l85 -57q-89 -153 -204 -153q-53 0 -130 45q-70 40 -102 40q-49 0 -98 -74l-84 57q90 153 202 153q51 0 129 -45q74 -41 111 -41q48 0 91 75z" />
    <glyph glyph-name="Imacron" unicode="&#x12a;" horiz-adv-x="488" 
d="M131 1365h226v-1365h-226v1365zM-32 1671h553v-131h-553v131z" />
    <glyph glyph-name="imacron" unicode="&#x12b;" horiz-adv-x="454" 
d="M123 1010h208v-1010h-208v1010zM-50 1331h553v-131h-553v131z" />
    <glyph glyph-name="Ibreve" unicode="&#x12c;" horiz-adv-x="488" 
d="M131 1365h226v-1365h-226v1365zM-56 1738h140q31 -112 167 -112q134 0 165 112h141q-51 -244 -306 -244q-256 0 -307 244z" />
    <glyph glyph-name="ibreve" unicode="&#x12d;" horiz-adv-x="454" 
d="M123 1010h208v-1010h-208v1010zM-79 1382h140q31 -112 167 -112q134 0 165 112h141q-51 -244 -306 -244q-256 0 -307 244z" />
    <glyph glyph-name="Iogonek" unicode="&#x12e;" horiz-adv-x="488" 
d="M357 0q-90 -86 -90 -155q0 -49 30.5 -78.5t69.5 -29.5q27 0 62 6l20 -81q-68 -24 -123 -24q-78 0 -141.5 47t-63.5 128q0 110 141 187h-131v1365h226v-1365z" />
    <glyph glyph-name="iogonek" unicode="&#x12f;" horiz-adv-x="454" 
d="M336 1146h-218v221h218v-221zM331 0q-80 -82 -80 -158q0 -46 30 -72t73 -26q4 0 21 3l24 4l20 -79q-67 -24 -111 -24q-84 0 -142 50t-58 121q0 105 131 181h-116v1010h208v-1010z" />
    <glyph glyph-name="IJ" unicode="&#x132;" horiz-adv-x="1117" 
d="M131 1365h226v-1365h-226v1365zM764 1365h226v-849q0 -211 -23.5 -313.5t-102.5 -165t-227 -62.5q-77 0 -181 25v187q69 -19 132 -19q73 0 110 27t51.5 82.5t14.5 238.5v849z" />
    <glyph glyph-name="ij" unicode="&#x133;" horiz-adv-x="908" 
d="M336 1146h-218v221h218v-221zM794 1146h-218v221h218v-221zM123 1010h208v-1010h-208v1010zM581 1010h208v-974q0 -154 -14.5 -228t-75 -123t-170.5 -49q-56 0 -127 16v173q40 -10 75 -10q69 0 86.5 39t17.5 185v971z" />
    <glyph glyph-name="Jcircumflex" unicode="&#x134;" horiz-adv-x="628" 
d="M276 1365h226v-849q0 -211 -24 -314t-103 -165t-227 -62q-76 0 -181 25v187q70 -19 132 -19q73 0 110.5 27t52 82.5t14.5 238.5v849zM23 1501l357 275l358 -275l-178 -14l-180 122l-179 -122z" />
    <glyph glyph-name="jcircumflex" unicode="&#x135;" horiz-adv-x="454" 
d="M-127 1152l357 275l358 -275l-178 -14l-180 122l-179 -122zM127 1010h208v-974q0 -154 -15 -228.5t-75.5 -122.5t-168.5 -48q-58 0 -128 15v173q40 -10 75 -10q69 0 86.5 39t17.5 185v971z" />
    <glyph glyph-name="Kcedilla" unicode="&#x136;" horiz-adv-x="1047" 
d="M131 1365h226v-651l412 651h239l-352 -501l412 -864h-245l-305 677l-161 -229v-448h-226v1365zM483 -109h191l-147 -369h-95z" />
    <glyph glyph-name="kcedilla" unicode="&#x137;" horiz-adv-x="872" 
d="M122 1365h209v-807l326 452h206l-261 -349l290 -661h-225l-202 506l-134 -185v-321h-209v1365zM398 -109h191l-147 -369h-95z" />
    <glyph glyph-name="kgreenlandic" unicode="&#x138;" horiz-adv-x="872" 
d="M123 1010h209v-452l326 452h206l-261 -349l290 -661h-225l-202 506l-134 -185v-321h-209v1010z" />
    <glyph glyph-name="Lacute" unicode="&#x139;" horiz-adv-x="837" 
d="M131 1365h226v-1174h483v-191h-709v1365zM128 1557l321 281l108 -136l-353 -222z" />
    <glyph glyph-name="lacute" unicode="&#x13a;" horiz-adv-x="454" 
d="M123 1365h209v-1365h-209v1365zM123 1557l321 281l108 -136l-353 -222z" />
    <glyph glyph-name="Lcedilla" unicode="&#x13b;" horiz-adv-x="837" 
d="M131 1365h226v-1174h483v-191h-709v1365zM391 -109h191l-147 -369h-95z" />
    <glyph glyph-name="lcedilla" unicode="&#x13c;" horiz-adv-x="454" 
d="M123 1365h209v-1365h-209v1365zM133 -109h191l-147 -369h-95z" />
    <glyph glyph-name="Lcaron" unicode="&#x13d;" horiz-adv-x="837" 
d="M131 1365h226v-1174h483v-191h-709v1365zM562 1365h198l-147 -396h-102z" />
    <glyph glyph-name="lcaron" unicode="&#x13e;" horiz-adv-x="618" 
d="M123 1365h209v-1365h-209v1365zM455 1365h191l-147 -382h-95z" />
    <glyph glyph-name="Ldot" unicode="&#x13f;" horiz-adv-x="837" 
d="M131 1365h226v-1174h483v-191h-709v1365zM549 825h228v-258l-228 1v257z" />
    <glyph glyph-name="ldot" unicode="&#x140;" horiz-adv-x="677" 
d="M123 1365h209v-1365h-209v1365zM454 816h223v-253l-223 1v252z" />
    <glyph glyph-name="Nacute" unicode="&#x143;" horiz-adv-x="1151" 
d="M124 1365h266l449 -984v984h189v-1365h-211l-504 1093v-1093h-189v1365zM456 1557l321 281l108 -136l-353 -222z" />
    <glyph glyph-name="nacute" unicode="&#x144;" 
d="M123 1010h193v-156q70 180 250 180q102 0 164.5 -49t79 -117.5t16.5 -216.5v-651h-208v640q0 132 -23 179.5t-98 47.5q-78 0 -121.5 -60.5t-43.5 -240.5v-566h-209v1010zM350 1208l321 281l108 -136l-353 -222z" />
    <glyph glyph-name="Ncedilla" unicode="&#x145;" horiz-adv-x="1151" 
d="M124 1365h266l449 -984v984h189v-1365h-211l-504 1093v-1093h-189v1365zM489 -109h191l-147 -369h-95z" />
    <glyph glyph-name="ncedilla" unicode="&#x146;" 
d="M123 1010h193v-156q70 180 250 180q102 0 164.5 -49t79 -117.5t16.5 -216.5v-651h-208v640q0 132 -23 179.5t-98 47.5q-78 0 -121.5 -60.5t-43.5 -240.5v-566h-209v1010zM384 -109h191l-147 -369h-95z" />
    <glyph glyph-name="Ncaron" unicode="&#x147;" horiz-adv-x="1151" 
d="M124 1365h266l449 -984v984h189v-1365h-211l-504 1093v-1093h-189v1365zM219 1745l178 14l179 -122l180 122l178 -14l-358 -275z" />
    <glyph glyph-name="ncaron" unicode="&#x148;" 
d="M123 1010h193v-156q70 180 250 180q102 0 164.5 -49t79 -117.5t16.5 -216.5v-651h-208v640q0 132 -23 179.5t-98 47.5q-78 0 -121.5 -60.5t-43.5 -240.5v-566h-209v1010zM103 1396l178 14l179 -122l180 122l178 -14l-358 -275z" />
    <glyph glyph-name="napostrophe" unicode="&#x149;" horiz-adv-x="1065" 
d="M-22 1365h218v-247l-139 -256h-99l117 249h-97v254zM246 1010h193v-156q70 180 250 180q102 0 164.5 -49t79 -117.5t16.5 -216.5v-651h-208v640q0 132 -23 179.5t-98 47.5q-77 0 -121 -60.5t-44 -240.5v-566h-209v1010z" />
    <glyph glyph-name="Eng" unicode="&#x14a;" horiz-adv-x="1197" 
d="M131 0v1365h218v-234q125 255 352 255q174 0 271.5 -112.5t97.5 -392.5v-778q0 -177 -39 -275t-133.5 -162.5t-246.5 -64.5q-72 0 -135 18v186q60 -13 105 -13q126 0 174.5 53.5t48.5 202.5v869q0 271 -192 271q-123 0 -209 -109.5t-86 -312.5v-766h-226z" />
    <glyph glyph-name="eng" unicode="&#x14b;" 
d="M123 0v1010h193v-156q70 180 250 180q102 0 164.5 -49t79 -117.5t16.5 -216.5v-651q0 -134 -16 -202t-77 -114.5t-167 -46.5q-57 0 -128 15v173q40 -10 76 -10q68 0 85.5 39t17.5 185l1 601q0 132 -23 179.5t-98 47.5q-89 0 -127 -72t-38 -229v-566h-209z" />
    <glyph glyph-name="Omacron" unicode="&#x14c;" horiz-adv-x="1152" 
d="M1067 683q0 -350 -125 -529t-363 -179q-239 0 -366 178.5t-127 529.5q0 348 126 527.5t366 179.5q237 0 363 -178.5t126 -528.5zM830 683q0 243 -56.5 382.5t-197.5 139.5t-197 -140t-56 -382q0 -238 55 -380t201 -142q137 0 194 137.5t57 384.5zM302 1671h553v-131h-553
v131z" />
    <glyph glyph-name="omacron" unicode="&#x14d;" 
d="M868 515q0 -540 -400 -540q-184 0 -289.5 130.5t-105.5 399.5q0 529 400 529q182 0 288.5 -129t106.5 -390zM647 505q0 213 -47.5 292.5t-128.5 79.5q-176 0 -176 -372q0 -190 41 -281t135 -91q93 0 134.5 92.5t41.5 279.5zM202 1331h553v-131h-553v131z" />
    <glyph glyph-name="Obreve" unicode="&#x14e;" horiz-adv-x="1152" 
d="M1067 683q0 -350 -125 -529t-363 -179q-239 0 -366 178.5t-127 529.5q0 348 126 527.5t366 179.5q237 0 363 -178.5t126 -528.5zM830 683q0 243 -56.5 382.5t-197.5 139.5t-197 -140t-56 -382q0 -238 55 -380t201 -142q137 0 194 137.5t57 384.5zM276 1738h140
q31 -112 167 -112q134 0 165 112h141q-51 -244 -306 -244q-256 0 -307 244z" />
    <glyph glyph-name="obreve" unicode="&#x14f;" 
d="M868 515q0 -540 -400 -540q-184 0 -289.5 130.5t-105.5 399.5q0 529 400 529q182 0 288.5 -129t106.5 -390zM647 505q0 213 -47.5 292.5t-128.5 79.5q-176 0 -176 -372q0 -190 41 -281t135 -91q93 0 134.5 92.5t41.5 279.5zM164 1382h140q31 -112 167 -112q134 0 165 112
h141q-51 -244 -306 -244q-256 0 -307 244z" />
    <glyph glyph-name="Odblacute" unicode="&#x150;" horiz-adv-x="1152" 
d="M1067 683q0 -350 -125 -529t-363 -179q-239 0 -366 178.5t-127 529.5q0 348 126 527.5t366 179.5q237 0 363 -178.5t126 -528.5zM830 683q0 243 -56.5 382.5t-197.5 139.5t-197 -140t-56 -382q0 -238 55 -380t201 -142q137 0 194 137.5t57 384.5zM619 1801l110 -116
l-277 -213l-63 68zM903 1801l110 -116l-277 -213l-63 68z" />
    <glyph glyph-name="odblacute" unicode="&#x151;" 
d="M868 515q0 -540 -400 -540q-184 0 -289.5 130.5t-105.5 399.5q0 529 400 529q182 0 288.5 -129t106.5 -390zM647 505q0 213 -47.5 292.5t-128.5 79.5q-176 0 -176 -372q0 -190 41 -281t135 -91q93 0 134.5 92.5t41.5 279.5zM502 1459l110 -116l-277 -213l-63 68z
M786 1459l110 -116l-277 -213l-63 68z" />
    <glyph glyph-name="Racute" unicode="&#x154;" horiz-adv-x="1081" 
d="M131 1365h411q223 0 329 -101t106 -290q0 -252 -209 -357l259 -617h-245l-213 570h-212v-570h-226v1365zM357 1190v-445h173q116 0 170.5 64t54.5 167q0 214 -223 214h-175zM379 1557l321 281l108 -136l-353 -222z" />
    <glyph glyph-name="racute" unicode="&#x155;" horiz-adv-x="558" 
d="M123 1010h184v-226q84 247 252 247q16 0 38 -3v-217q-26 3 -42 3q-223 0 -223 -300v-514h-209v1010zM222 1208l321 281l108 -136l-353 -222z" />
    <glyph glyph-name="Rcedilla" unicode="&#x156;" horiz-adv-x="1081" 
d="M131 1365h411q223 0 329 -101t106 -290q0 -252 -209 -357l259 -617h-245l-213 570h-212v-570h-226v1365zM357 1190v-445h173q116 0 170.5 64t54.5 167q0 214 -223 214h-175zM460 -109h191l-147 -369h-95z" />
    <glyph glyph-name="rcedilla" unicode="&#x157;" horiz-adv-x="558" 
d="M123 1010h184v-226q84 247 252 247q16 0 38 -3v-217q-26 3 -42 3q-223 0 -223 -300v-514h-209v1010zM132 -109h191l-147 -369h-95z" />
    <glyph glyph-name="Rcaron" unicode="&#x158;" horiz-adv-x="1081" 
d="M131 1365h411q223 0 329 -101t106 -290q0 -252 -209 -357l259 -617h-245l-213 570h-212v-570h-226v1365zM357 1190v-445h173q116 0 170.5 64t54.5 167q0 214 -223 214h-175zM156 1745l178 14l179 -122l180 122l178 -14l-358 -275z" />
    <glyph glyph-name="rcaron" unicode="&#x159;" horiz-adv-x="558" 
d="M123 1010h184v-226q84 247 252 247q16 0 38 -3v-217q-26 3 -42 3q-223 0 -223 -300v-514h-209v1010zM-10 1396l178 14l179 -122l180 122l178 -14l-358 -275z" />
    <glyph glyph-name="Sacute" unicode="&#x15a;" horiz-adv-x="1047" 
d="M944 1060l-193 -67q-34 108 -89.5 159.5t-151.5 51.5q-89 0 -137.5 -52.5t-48.5 -120.5q0 -75 54.5 -119.5t217.5 -106.5q139 -53 214 -101t121.5 -128.5t46.5 -186.5q0 -172 -121.5 -293t-340.5 -121q-378 0 -468 382l202 57q53 -252 276 -252q109 0 165.5 56.5
t56.5 139.5q0 61 -39 113t-194 111q-164 62 -236.5 105t-123.5 127t-51 191q0 163 113.5 274t301.5 111q333 0 425 -330zM400 1557l321 281l108 -136l-353 -222z" />
    <glyph glyph-name="sacute" unicode="&#x15b;" horiz-adv-x="803" 
d="M731 774l-163 -44q-45 152 -171 152q-58 0 -93.5 -36t-35.5 -89q0 -60 36 -88t165 -70q159 -53 229 -119.5t70 -185.5q0 -134 -100 -226.5t-270 -92.5q-321 0 -364 294l177 33q34 -174 193 -174q81 0 120.5 40t39.5 95q0 38 -27 75.5t-151 77.5q-119 38 -179.5 71
t-99.5 95.5t-39 141.5q0 129 94 219.5t243 90.5q253 0 326 -260zM283 1208l321 281l108 -136l-353 -222z" />
    <glyph glyph-name="Scircumflex" unicode="&#x15c;" horiz-adv-x="1047" 
d="M944 1060l-193 -67q-34 108 -89.5 159.5t-151.5 51.5q-89 0 -137.5 -52.5t-48.5 -120.5q0 -75 54.5 -119.5t217.5 -106.5q139 -53 214 -101t121.5 -128.5t46.5 -186.5q0 -172 -121.5 -293t-340.5 -121q-378 0 -468 382l202 57q53 -252 276 -252q109 0 165.5 56.5
t56.5 139.5q0 61 -39 113t-194 111q-164 62 -236.5 105t-123.5 127t-51 191q0 163 113.5 274t301.5 111q333 0 425 -330zM168 1501l357 275l358 -275l-178 -14l-180 122l-179 -122z" />
    <glyph glyph-name="scircumflex" unicode="&#x15d;" horiz-adv-x="803" 
d="M731 774l-163 -44q-45 152 -171 152q-58 0 -93.5 -36t-35.5 -89q0 -60 36 -88t165 -70q159 -53 229 -119.5t70 -185.5q0 -134 -100 -226.5t-270 -92.5q-321 0 -364 294l177 33q34 -174 193 -174q81 0 120.5 40t39.5 95q0 38 -27 75.5t-151 77.5q-119 38 -179.5 71
t-99.5 95.5t-39 141.5q0 129 94 219.5t243 90.5q253 0 326 -260zM58 1152l357 275l358 -275l-178 -14l-180 122l-179 -122z" />
    <glyph glyph-name="Tcedilla" unicode="&#x162;" horiz-adv-x="767" 
d="M-32 1365h833v-192h-305v-1173h-226v1173h-302v192zM290 -109h191l-147 -369h-95z" />
    <glyph glyph-name="tcedilla" unicode="&#x163;" horiz-adv-x="558" 
d="M160 1273l188 18v-281h193v-168h-193v-446q0 -118 6 -156.5t36 -63t100 -24.5q37 0 84 7v-166q-84 -18 -156 -18q-117 0 -179 45.5t-79 123.5t-17 238v460h-131v168h137zM254 -109h191l-147 -369h-95z" />
    <glyph glyph-name="Tcaron" unicode="&#x164;" horiz-adv-x="767" 
d="M-32 1365h833v-192h-305v-1173h-226v1173h-302v192zM27 1745l178 14l179 -122l180 122l178 -14l-358 -275z" />
    <glyph glyph-name="tcaron" unicode="&#x165;" horiz-adv-x="652" 
d="M160 1273l188 18v-281h193v-168h-193v-446q0 -118 6 -156.5t36 -63t100 -24.5q37 0 84 7v-166q-84 -18 -156 -18q-117 0 -179 45.5t-79 123.5t-17 238v460h-131v168h137zM502 1501h191l-147 -382h-95z" />
    <glyph glyph-name="Tbar" unicode="&#x166;" horiz-adv-x="767" 
d="M495 887h346v-190h-346v-697h-226v697h-343v190h343v286h-302v192h833v-192h-305v-286z" />
    <glyph glyph-name="tbar" unicode="&#x167;" horiz-adv-x="558" 
d="M348 703h152v-147h-152v-160q0 -118 6 -156.5t36 -63t100 -24.5q37 0 84 7v-166q-84 -18 -156 -18q-117 0 -179 45.5t-79 123.5t-17 238v174h-131v147h131v139h-131v168h137l11 263l188 18v-281h193v-168h-193v-139z" />
    <glyph glyph-name="Utilde" unicode="&#x168;" horiz-adv-x="1116" 
d="M121 1365h221v-847q0 -142 15 -209.5t68.5 -107t144.5 -39.5q86 0 134 32.5t68 92t20 235.5v843h203v-832q0 -200 -28.5 -308t-132 -179t-277.5 -71q-135 0 -234.5 44.5t-150.5 144t-51 354.5v847zM785 1702l85 -57q-89 -153 -204 -153q-53 0 -130 45q-70 40 -102 40
q-49 0 -98 -74l-84 57q90 153 202 153q51 0 129 -45q74 -41 111 -41q48 0 91 75z" />
    <glyph glyph-name="utilde" unicode="&#x169;" horiz-adv-x="943" 
d="M116 1010h209v-642q0 -134 22 -179.5t97 -45.5q93 0 130 81t37 300v486h208v-1010h-191v152q-81 -177 -257 -177q-90 0 -147.5 38t-82.5 108t-25 243v646zM702 1369l85 -57q-89 -153 -204 -153q-53 0 -130 45q-70 40 -102 40q-49 0 -98 -74l-84 57q90 153 202 153
q51 0 129 -45q74 -41 111 -41q48 0 91 75z" />
    <glyph glyph-name="Umacron" unicode="&#x16a;" horiz-adv-x="1116" 
d="M121 1365h221v-847q0 -142 15 -209.5t68.5 -107t144.5 -39.5q86 0 134 32.5t68 92t20 235.5v843h203v-832q0 -200 -28.5 -308t-132 -179t-277.5 -71q-135 0 -234.5 44.5t-150.5 144t-51 354.5v847zM288 1671h553v-131h-553v131z" />
    <glyph glyph-name="umacron" unicode="&#x16b;" horiz-adv-x="943" 
d="M116 1010h209v-642q0 -134 22 -179.5t97 -45.5q93 0 130 81t37 300v486h208v-1010h-191v152q-81 -177 -257 -177q-90 0 -147.5 38t-82.5 108t-25 243v646zM195 1331h553v-131h-553v131z" />
    <glyph glyph-name="Ubreve" unicode="&#x16c;" horiz-adv-x="1116" 
d="M121 1365h221v-847q0 -142 15 -209.5t68.5 -107t144.5 -39.5q86 0 134 32.5t68 92t20 235.5v843h203v-832q0 -200 -28.5 -308t-132 -179t-277.5 -71q-135 0 -234.5 44.5t-150.5 144t-51 354.5v847zM258 1738h140q31 -112 167 -112q134 0 165 112h141q-51 -244 -306 -244
q-256 0 -307 244z" />
    <glyph glyph-name="ubreve" unicode="&#x16d;" horiz-adv-x="943" 
d="M116 1010h209v-642q0 -134 22 -179.5t97 -45.5q93 0 130 81t37 300v486h208v-1010h-191v152q-81 -177 -257 -177q-90 0 -147.5 38t-82.5 108t-25 243v646zM164 1382h140q31 -112 167 -112q134 0 165 112h141q-51 -244 -306 -244q-256 0 -307 244z" />
    <glyph glyph-name="Uring" unicode="&#x16e;" horiz-adv-x="1116" 
d="M121 1365h221v-847q0 -142 15 -209.5t68.5 -107t144.5 -39.5q86 0 134 32.5t68 92t20 235.5v843h203v-832q0 -200 -28.5 -308t-132 -179t-277.5 -71q-135 0 -234.5 44.5t-150.5 144t-51 354.5v847zM374 1638q0 80 56 135t132 55t132 -55t56 -135q0 -81 -58.5 -134
t-129.5 -53q-70 0 -129 52.5t-59 134.5zM476 1639q0 -38 26.5 -62.5t59.5 -24.5t59.5 24.5t26.5 61.5q0 38 -25.5 64t-60.5 26q-34 0 -60 -25.5t-26 -63.5z" />
    <glyph glyph-name="uring" unicode="&#x16f;" horiz-adv-x="943" 
d="M116 1010h209v-642q0 -134 22 -179.5t97 -45.5q93 0 130 81t37 300v486h208v-1010h-191v152q-81 -177 -257 -177q-90 0 -147.5 38t-82.5 108t-25 243v646zM282 1301q0 80 56 135t132 55t132 -55t56 -135q0 -81 -58.5 -134t-129.5 -53q-70 0 -129 52.5t-59 134.5z
M384 1302q0 -38 26.5 -62.5t59.5 -24.5t59.5 24.5t26.5 61.5q0 38 -25.5 64t-60.5 26q-34 0 -60 -25.5t-26 -63.5z" />
    <glyph glyph-name="Udblacute" unicode="&#x170;" horiz-adv-x="1116" 
d="M121 1365h221v-847q0 -142 15 -209.5t68.5 -107t144.5 -39.5q86 0 134 32.5t68 92t20 235.5v843h203v-832q0 -200 -28.5 -308t-132 -179t-277.5 -71q-135 0 -234.5 44.5t-150.5 144t-51 354.5v847zM604 1804l110 -116l-277 -213l-63 68zM888 1804l110 -116l-277 -213
l-63 68z" />
    <glyph glyph-name="udblacute" unicode="&#x171;" horiz-adv-x="943" 
d="M116 1010h209v-642q0 -134 22 -179.5t97 -45.5q93 0 130 81t37 300v486h208v-1010h-191v152q-81 -177 -257 -177q-90 0 -147.5 38t-82.5 108t-25 243v646zM502 1459l110 -116l-277 -213l-63 68zM786 1459l110 -116l-277 -213l-63 68z" />
    <glyph glyph-name="Uogonek" unicode="&#x172;" horiz-adv-x="1116" 
d="M920 -243l21 -82q-65 -23 -139 -23q-113 0 -171.5 50t-58.5 124q0 96 101 160q-83 -11 -128 -11q-116 0 -221 45t-154 148t-49 350v847h221v-847q0 -142 15 -209.5t68.5 -107t144.5 -39.5q86 0 134 32.5t68 92t20 235.5v843h203v-832q0 -171 -16 -257t-48.5 -134.5
t-108.5 -108.5q-104 -83 -104 -177q0 -105 136 -105q33 0 66 6z" />
    <glyph glyph-name="uogonek" unicode="&#x173;" horiz-adv-x="943" 
d="M611 1010h208v-1010q-86 -79 -86 -155q0 -100 131 -100q29 0 65 6l19 -79q-61 -23 -136 -23q-106 0 -163.5 48t-57.5 121q0 109 137 182h-100v152q-81 -177 -257 -177q-90 0 -147.5 38t-82.5 108t-25 243v646h209v-642q0 -134 22 -179.5t97 -45.5q93 0 130 81t37 300v486
z" />
    <glyph glyph-name="Wcircumflex" unicode="&#x174;" horiz-adv-x="1431" 
d="M5 1365h229l185 -1022l214 1022h196l212 -1023l194 1023h191l-287 -1368h-204l-216 1002l-212 -1002h-208zM372 1501l357 275l358 -275l-178 -14l-180 122l-179 -122z" />
    <glyph glyph-name="wcircumflex" unicode="&#x175;" horiz-adv-x="1151" 
d="M-2 1010h205l150 -694l145 694h183l144 -698l160 698h169l-250 -1010h-177l-153 700l-146 -700h-177zM219 1152l357 275l358 -275l-178 -14l-180 122l-179 -122z" />
    <glyph glyph-name="Ycircumflex" unicode="&#x176;" horiz-adv-x="837" 
d="M-65 1365h245l251 -569l255 569h216l-379 -788v-577h-225v577zM68 1501l357 275l358 -275l-178 -14l-180 122l-179 -122z" />
    <glyph glyph-name="ycircumflex" unicode="&#x177;" horiz-adv-x="733" 
d="M-1 1010h209l176 -694l181 694h188l-328 -1074q-36 -117 -66 -173t-85 -90.5t-142 -34.5q-52 0 -107 14v166q40 -7 73 -7q81 0 115 39.5t73 183.5zM32 1152l357 275l358 -275l-178 -14l-180 122l-179 -122z" />
    <glyph glyph-name="Zacute" unicode="&#x179;" horiz-adv-x="872" 
d="M38 1365h819v-158l-604 -1017h620v-190h-872v175l599 1005h-562v185zM323 1557l321 281l108 -136l-353 -222z" />
    <glyph glyph-name="zacute" unicode="&#x17a;" horiz-adv-x="698" 
d="M66 1010h614v-127l-425 -725h429v-158h-654v158l410 694h-374v158zM244 1208l321 281l108 -136l-353 -222z" />
    <glyph glyph-name="Zdot" unicode="&#x17b;" horiz-adv-x="872" 
d="M38 1365h819v-158l-604 -1017h620v-190h-872v175l599 1005h-562v185zM333 1604q0 50 35.5 84.5t84.5 34.5q50 0 85.5 -35t35.5 -84q0 -52 -37 -85t-84 -33q-42 0 -81 31t-39 87z" />
    <glyph glyph-name="zdot" unicode="&#x17c;" horiz-adv-x="698" 
d="M66 1010h614v-127l-425 -725h429v-158h-654v158l410 694h-374v158zM262 1265q0 50 35.5 84.5t84.5 34.5q50 0 85.5 -35t35.5 -84q0 -52 -37 -85t-84 -33q-42 0 -81 31t-39 87z" />
    <glyph glyph-name="longs" unicode="&#x17f;" horiz-adv-x="488" 
d="M343 0h-220v1010q0 139 25 211.5t98.5 119.5t239.5 47q32 0 81 -2v-179q-43 3 -60 3q-83 0 -117 -22.5t-40.5 -53t-6.5 -124.5v-1010z" />
    <glyph glyph-name="Aringacute" unicode="&#x1fa;" horiz-adv-x="1012" 
d="M641 1364l365 -1364h-229l-86 342h-399l-84 -342h-216l394 1362q-67 56 -67 146q0 82 57.5 138t135.5 56q80 0 137 -57t57 -137q0 -87 -65 -144zM424 1508q0 -39 27 -64.5t61 -25.5q35 0 62 25.5t27 64.5q0 38 -26.5 64.5t-62.5 26.5q-35 0 -61.5 -26t-26.5 -65zM646 520
l-155 625l-154 -625h309zM279 1831l394 194l71 -165l-410 -127z" />
    <glyph glyph-name="aringacute" unicode="&#x1fb;" 
d="M310 724l-201 25q20 135 124.5 210t256.5 75q136 0 217.5 -54.5t102.5 -129.5t21 -227v-344q0 -209 18 -279h-197q-13 55 -13 168q-95 -193 -284 -193q-128 0 -205.5 78.5t-77.5 213.5q0 165 113.5 261t393.5 96q14 0 44 -1v41q0 108 -32.5 163t-116.5 55
q-137 0 -164 -158zM623 492q-40 4 -61 4q-272 0 -272 -213q0 -155 135 -155q79 0 138.5 84t59.5 231v49zM298 1301q0 80 56 135t132 55t132 -55t56 -135q0 -81 -58.5 -134t-129.5 -53q-70 0 -129 52.5t-59 134.5zM400 1302q0 -38 26.5 -62.5t59.5 -24.5t59.5 24.5t26.5 61.5
q0 38 -25.5 64t-60.5 26q-34 0 -60 -25.5t-26 -63.5zM280 1577l321 281l108 -136l-353 -222z" />
    <glyph glyph-name="AEacute" unicode="&#x1fc;" horiz-adv-x="1430" 
d="M538 1365h870v-181h-548v-390h431v-182h-431v-427h551v-185h-772v374h-355l-161 -374h-206zM642 549v669l-287 -669h287zM730 1557l321 281l108 -136l-353 -222z" />
    <glyph glyph-name="aeacute" unicode="&#x1fd;" horiz-adv-x="1430" 
d="M1380 474h-566q0 -201 55 -271.5t140 -70.5q135 0 173 187l186 -25q-66 -319 -362 -319q-214 0 -306 190q-112 -190 -332 -190q-150 0 -223 87t-73 204q0 128 65.5 213t176 115t299.5 30l1 53q0 205 -151 205q-135 0 -165 -161l-191 25q20 137 118 212.5t249 75.5
q191 0 269 -124q98 119 270 119q154 0 258.5 -131.5t108.5 -423.5zM1169 615q-7 267 -171 267q-161 0 -181 -267h352zM613 493q-37 4 -58 4q-269 0 -269 -215q0 -154 131 -154q87 0 142.5 83.5t55.5 227.5q0 18 -2 54zM587 1208l321 281l108 -136l-353 -222z" />
    <glyph glyph-name="Oslashacute" unicode="&#x1fe;" horiz-adv-x="1151" 
d="M889 1441h144l-108 -215q135 -174 135 -543q0 -349 -123.5 -528.5t-356.5 -179.5q-70 0 -96.5 7t-154.5 57l-59 -122h-144l108 215q-144 169 -144 551q0 348 124.5 527.5t362.5 179.5q142 0 254 -70zM735 1163q-62 51 -157 51q-153 0 -211.5 -141.5t-58.5 -389.5
q0 -239 40 -352zM425 194q60 -43 150 -43q149 0 208 139.5t59 392.5q0 235 -34 335zM373 1557l321 281l108 -136l-353 -222z" />
    <glyph glyph-name="oslashacute" unicode="&#x1ff;" 
d="M722 1100h121l-91 -182q116 -135 116 -404q0 -539 -395 -539q-101 0 -185 38l-59 -119h-121l93 185q-128 139 -128 426q0 255 99.5 392t293.5 137q117 0 200 -45zM585 857q-44 28 -111 28q-111 0 -158 -94t-47 -286q0 -158 31 -259zM370 145q53 -21 97 -21q115 0 160 98
t45 283q0 124 -24 236zM290 1208l321 281l108 -136l-353 -222z" />
    <glyph glyph-name="tonos" unicode="&#x384;" horiz-adv-x="1024" 
d="M107 1474l154 -109l-299 -331l-92 67z" />
    <glyph glyph-name="dieresistonos" unicode="&#x385;" horiz-adv-x="1024" 
d="M670 1733l101 -130l-296 -193l-61 91zM244 1265q0 44 32.5 74t76.5 30q43 0 76 -29t33 -75q0 -45 -34 -73.5t-75 -28.5q-40 0 -74.5 28t-34.5 74zM562 1265q0 43 32.5 73.5t76.5 30.5t76.5 -30t32.5 -74q0 -46 -34 -74t-75 -28t-75 28.5t-34 73.5z" />
    <glyph glyph-name="Alphatonos" unicode="&#x386;" horiz-adv-x="1012" 
d="M387 1365h253l366 -1365h-229l-86 342h-399l-84 -342h-216zM646 520l-155 625l-154 -625h309zM137 1474l154 -109l-299 -331l-92 67z" />
    <glyph glyph-name="anoteleia" unicode="&#x387;" horiz-adv-x="489" 
d="M130 655h228v-258h-228v258z" />
    <glyph glyph-name="Epsilontonos" unicode="&#x388;" 
d="M131 1365h782v-181h-556v-390h436v-182h-436v-427h565v-185h-791v1365zM-105 1474l154 -109l-299 -331l-92 67z" />
    <glyph glyph-name="Etatonos" unicode="&#x389;" horiz-adv-x="1116" 
d="M131 1365h226v-566h402v566h226v-1365h-226v608h-402v-608h-226v1365zM-105 1474l154 -109l-299 -331l-92 67z" />
    <glyph glyph-name="Iotatonos" unicode="&#x38a;" horiz-adv-x="488" 
d="M131 1365h226v-1365h-226v1365zM-105 1474l154 -109l-299 -331l-92 67z" />
    <glyph glyph-name="Omicrontonos" unicode="&#x38c;" horiz-adv-x="1152" 
d="M1067 683q0 -350 -125 -529t-363 -179q-239 0 -366 178.5t-127 529.5q0 348 126 527.5t366 179.5q237 0 363 -178.5t126 -528.5zM830 683q0 243 -56.5 382.5t-197.5 139.5t-197 -140t-56 -382q0 -238 55 -380t201 -142q137 0 194 137.5t57 384.5zM21 1474l154 -109
l-299 -331l-92 67z" />
    <glyph glyph-name="Upsilontonos" unicode="&#x38e;" horiz-adv-x="837" 
d="M-65 1365h245l251 -569l255 569h216l-379 -788v-577h-225v577zM-288 1474l154 -109l-299 -331l-92 67z" />
    <glyph glyph-name="Omegatonos" unicode="&#x38f;" horiz-adv-x="1183" 
d="M70 0v190h301q-282 170 -282 572q0 302 137 465t366 163q231 0 367 -164.5t136 -456.5q0 -408 -282 -579h301v-190h-459v201q204 160 204 553q0 450 -267 450t-267 -451q0 -393 204 -552v-201h-459zM9 1474l154 -109l-299 -331l-92 67z" />
    <glyph glyph-name="iotadieresistonos" unicode="&#x390;" horiz-adv-x="455" 
d="M123 1010h208v-1010h-208v1010zM385 1733l101 -130l-296 -193l-61 91zM-41 1265q0 44 32.5 74t76.5 30q43 0 76 -29t33 -75q0 -45 -34 -73.5t-75 -28.5q-40 0 -74.5 28t-34.5 74zM277 1265q0 43 32.5 73.5t76.5 30.5t76.5 -30t32.5 -74q0 -46 -34 -74t-75 -28t-75 28.5
t-34 73.5z" />
    <glyph glyph-name="Alpha" unicode="&#x391;" horiz-adv-x="1012" 
d="M387 1365h253l366 -1365h-229l-86 342h-399l-84 -342h-216zM646 520l-155 625l-154 -625h309z" />
    <glyph glyph-name="Beta" unicode="&#x392;" horiz-adv-x="1116" 
d="M131 1365h413q156 0 237 -25t137 -111.5t56 -210.5q0 -227 -203 -299q245 -77 245 -343q0 -151 -96.5 -263.5t-369.5 -112.5h-419v1365zM352 799h143q151 0 199 55.5t48 143.5q0 103 -55 147.5t-170 44.5h-165v-391zM352 181h182q250 0 250 221q0 86 -53 154t-216 68
h-163v-443z" />
    <glyph glyph-name="Gamma" unicode="&#x393;" horiz-adv-x="769" 
d="M131 0v1365h662v-190h-437v-1175h-225z" />
    <glyph glyph-name="Delta" unicode="&#x394;" horiz-adv-x="964" 
d="M-33 0l371 1365h295l364 -1365h-1030zM225 190h481l-235 988z" />
    <glyph glyph-name="Epsilon" unicode="&#x395;" 
d="M131 1365h782v-181h-556v-390h436v-182h-436v-427h565v-185h-791v1365z" />
    <glyph glyph-name="Zeta" unicode="&#x396;" horiz-adv-x="872" 
d="M38 1365h819v-158l-604 -1017h620v-190h-872v175l599 1005h-562v185z" />
    <glyph glyph-name="Eta" unicode="&#x397;" horiz-adv-x="1116" 
d="M131 1365h226v-566h402v566h226v-1365h-226v608h-402v-608h-226v1365z" />
    <glyph glyph-name="Theta" unicode="&#x398;" horiz-adv-x="1186" 
d="M1099 683q0 -351 -129.5 -529.5t-373.5 -178.5q-246 0 -378 178.5t-132 529.5q0 345 129 526t380 181q245 0 374.5 -180t129.5 -527zM862 682q0 249 -59.5 385.5t-209.5 136.5q-149 0 -209.5 -138t-60.5 -384q0 -238 59 -379.5t213 -141.5q146 0 206.5 137.5t60.5 383.5z
M755 785v-181h-323v181h323z" />
    <glyph glyph-name="Iota" unicode="&#x399;" horiz-adv-x="488" 
d="M131 1365h226v-1365h-226v1365z" />
    <glyph glyph-name="Kappa" unicode="&#x39a;" horiz-adv-x="1047" 
d="M131 1365h226v-651l412 651h239l-352 -501l412 -864h-245l-305 677l-161 -229v-448h-226v1365z" />
    <glyph glyph-name="Lambda" unicode="&#x39b;" horiz-adv-x="933" 
d="M175 0h-208l369 1365h278l351 -1365h-238l-272 1134z" />
    <glyph glyph-name="Mu" unicode="&#x39c;" horiz-adv-x="1465" 
d="M126 1365h335l272 -984l279 984h321v-1365h-212v1165l-324 -1165h-164l-318 1166v-1166h-189v1365z" />
    <glyph glyph-name="Nu" unicode="&#x39d;" horiz-adv-x="1151" 
d="M124 1365h266l449 -984v984h189v-1365h-211l-504 1093v-1093h-189v1365z" />
    <glyph glyph-name="Xi" unicode="&#x39e;" horiz-adv-x="905" 
d="M56 1175v190h793v-190h-793zM181 611v181h544v-181h-544zM56 0v190h793v-190h-793z" />
    <glyph glyph-name="Omicron" unicode="&#x39f;" horiz-adv-x="1152" 
d="M1067 683q0 -350 -125 -529t-363 -179q-239 0 -366 178.5t-127 529.5q0 348 126 527.5t366 179.5q237 0 363 -178.5t126 -528.5zM830 683q0 243 -56.5 382.5t-197.5 139.5t-197 -140t-56 -382q0 -238 55 -380t201 -142q137 0 194 137.5t57 384.5z" />
    <glyph glyph-name="Pi" unicode="&#x3a0;" horiz-adv-x="1077" 
d="M131 0v1365h815v-1365h-225v1175h-365v-1175h-225z" />
    <glyph glyph-name="Rho" unicode="&#x3a1;" horiz-adv-x="1012" 
d="M131 1365h338q162 0 263 -30.5t170 -135t69 -251.5q0 -135 -56 -232t-150.5 -140t-290.5 -43h-117v-533h-226v1365zM357 1190v-476h112q150 0 207.5 56t57.5 182q0 94 -38 152.5t-83.5 72t-143.5 13.5h-112z" />
    <glyph glyph-name="Sigma" unicode="&#x3a3;" horiz-adv-x="867" 
d="M53 0v177l341 548l-321 459v181h735v-181h-485l305 -418l-355 -576h573v-190h-793z" />
    <glyph glyph-name="Tau" unicode="&#x3a4;" horiz-adv-x="768" 
d="M-32 1365h833v-192h-305v-1173h-226v1173h-302v192z" />
    <glyph glyph-name="Upsilon" unicode="&#x3a5;" horiz-adv-x="837" 
d="M-65 1365h245l251 -569l255 569h216l-379 -788v-577h-225v577z" />
    <glyph glyph-name="Phi" unicode="&#x3a6;" horiz-adv-x="1294" 
d="M552 128q-237 25 -351.5 176t-114.5 372q0 253 127 398t339 165v169h190v-169q225 -24 345.5 -172t120.5 -383q0 -485 -466 -556v-170h-190v170zM552 1075q-244 -58 -244 -399q0 -323 244 -384v783zM742 292q244 59 244 399q0 323 -244 384v-783z" />
    <glyph glyph-name="Chi" unicode="&#x3a7;" horiz-adv-x="907" 
d="M16 1365h251l196 -435l218 435h211l-316 -620l359 -745h-254l-232 523l-263 -523h-214l365 707z" />
    <glyph glyph-name="Psi" unicode="&#x3a8;" horiz-adv-x="1385" 
d="M580 0v256q-149 12 -242.5 60t-142.5 125.5t-66.5 189.5t-17.5 335v399h225v-399q0 -215 14.5 -308t70 -149.5t159.5 -66.5v923h226v-923q101 10 156.5 64.5t71.5 146t16 313.5v399h225v-399q0 -264 -29 -394t-133.5 -215t-306.5 -101v-256h-226z" />
    <glyph glyph-name="Omega" unicode="&#x3a9;" horiz-adv-x="1183" 
d="M70 0v190h301q-282 170 -282 572q0 302 137 465t366 163q231 0 367 -164.5t136 -456.5q0 -408 -282 -579h301v-190h-459v201q204 160 204 553q0 450 -267 450t-267 -451q0 -393 204 -552v-201h-459z" />
    <glyph glyph-name="Iotadieresis" unicode="&#x3aa;" horiz-adv-x="488" 
d="M131 1365h226v-1365h-226v1365zM-24 1614q0 44 32.5 74t76.5 30q43 0 76 -29t33 -75q0 -45 -34 -73.5t-75 -28.5q-40 0 -74.5 28t-34.5 74zM294 1614q0 43 32.5 73.5t76.5 30.5t76.5 -30t32.5 -74q0 -46 -34 -74t-75 -28t-75 28.5t-34 73.5z" />
    <glyph glyph-name="Upsilondieresis" unicode="&#x3ab;" horiz-adv-x="837" 
d="M-65 1365h245l251 -569l255 569h216l-379 -788v-577h-225v577zM162 1604q0 44 32.5 74t76.5 30q43 0 76 -29t33 -75q0 -45 -34 -73.5t-75 -28.5q-40 0 -74.5 28t-34.5 74zM480 1604q0 43 32.5 73.5t76.5 30.5t76.5 -30t32.5 -74q0 -46 -34 -74t-75 -28t-75 28.5t-34 73.5
z" />
    <glyph glyph-name="alphatonos" unicode="&#x3ac;" horiz-adv-x="1039" 
d="M1015 0h-214l-72 272q-45 -149 -114 -223t-184 -74q-103 0 -184.5 59t-127 176t-45.5 286q0 257 96 398t271 141q209 0 289 -259l67 234h195l-153 -483zM664 516q-14 65 -61 188.5t-80 148.5t-69 25q-74 0 -116 -108t-42 -272q0 -178 49 -271.5t121 -93.5
q58 0 105.5 92.5t92.5 290.5zM364 1208l321 281l108 -136l-353 -222z" />
    <glyph glyph-name="epsilontonos" unicode="&#x3ad;" horiz-adv-x="813" 
d="M520 582v-132q-98 -1 -133.5 -8.5t-63 -46t-27.5 -100.5q0 -85 41 -130.5t98 -45.5q54 0 101.5 45.5t67.5 138.5l189 -37q-73 -291 -374 -291q-179 0 -262 88.5t-83 221.5q0 88 42 144.5t149 99.5q-166 75 -166 230q0 121 85 198.5t241 77.5q306 0 348 -272l-185 -38
q-28 167 -140 167q-64 0 -95.5 -45t-31.5 -110q0 -84 42 -120.5t157 -34.5zM294 1208l321 281l108 -136l-353 -222z" />
    <glyph glyph-name="etatonos" unicode="&#x3ae;" horiz-adv-x="925" 
d="M826 -341h-209v973q0 158 -35 201.5t-82 43.5q-77 0 -131.5 -79t-54.5 -225v-573h-209v1010h190v-141q98 166 258 166q93 0 156 -42t90 -117.5t27 -267.5v-949zM364 1208l321 281l108 -136l-353 -222z" />
    <glyph glyph-name="iotatonos" unicode="&#x3af;" horiz-adv-x="455" 
d="M123 1010h208v-1010h-208v1010zM66 1208l321 281l108 -136l-353 -222z" />
    <glyph glyph-name="upsilondieresistonos" unicode="&#x3b0;" horiz-adv-x="925" 
d="M111 1010h209v-597q0 -125 8 -174t43 -77.5t91 -28.5q58 0 92 28t43 75.5t9 176.5v597h209v-597q0 -181 -31 -264t-111.5 -128.5t-203.5 -45.5q-128 0 -208.5 41t-115 124t-34.5 273v597zM621 1733l101 -130l-296 -193l-61 91zM195 1265q0 44 32.5 74t76.5 30
q43 0 76 -29t33 -75q0 -45 -34 -73.5t-75 -28.5q-40 0 -74.5 28t-34.5 74zM513 1265q0 43 32.5 73.5t76.5 30.5t76.5 -30t32.5 -74q0 -46 -34 -74t-75 -28t-75 28.5t-34 73.5z" />
    <glyph glyph-name="alpha" unicode="&#x3b1;" horiz-adv-x="1039" 
d="M1015 0h-214l-72 272q-45 -149 -114 -223t-184 -74q-103 0 -184.5 59t-127 176t-45.5 286q0 257 96 398t271 141q209 0 289 -259l67 234h195l-153 -483zM664 516q-14 65 -61 188.5t-80 148.5t-69 25q-74 0 -116 -108t-42 -272q0 -178 49 -271.5t121 -93.5
q58 0 105.5 92.5t92.5 290.5z" />
    <glyph glyph-name="beta" unicode="&#x3b2;" horiz-adv-x="976" 
d="M123 -341v1246q0 201 33 296.5t117.5 142t210.5 46.5q178 0 265 -92.5t87 -233.5q0 -208 -213 -294q177 -65 228.5 -161.5t51.5 -216.5q0 -186 -99.5 -301.5t-253.5 -115.5q-133 0 -218 105v-421h-209zM332 228q69 -95 150 -95q97 0 148 82t51 209q0 268 -221 268v128
q107 3 139 65t32 143q0 98 -37.5 158.5t-112.5 60.5q-59 0 -104 -44t-45 -270v-705z" />
    <glyph glyph-name="gamma" unicode="&#x3b3;" horiz-adv-x="734" 
d="M256 -341v341l-285 1010h219l133 -499q26 -100 52 -246q33 166 55 245l137 500h189l-291 -1010v-341h-209z" />
    <glyph glyph-name="delta" unicode="&#x3b4;" horiz-adv-x="943" 
d="M769 1365v-157h-371l150 -131q128 -113 184.5 -178.5t96.5 -173t40 -244.5q0 -232 -102 -369t-293 -137q-193 0 -296.5 132.5t-103.5 362.5q0 216 101 336t258 120q17 0 36 -1l-302 283v157h602zM475 823q-73 0 -126 -77t-53 -267t52.5 -268t123.5 -78q77 0 126 86
t49 260q0 176 -48 260t-124 84z" />
    <glyph glyph-name="epsilon" unicode="&#x3b5;" horiz-adv-x="813" 
d="M520 582v-132q-98 -1 -133.5 -8.5t-63 -46t-27.5 -100.5q0 -85 41 -130.5t98 -45.5q54 0 101.5 45.5t67.5 138.5l189 -37q-73 -291 -374 -291q-179 0 -262 88.5t-83 221.5q0 88 42 144.5t149 99.5q-166 75 -166 230q0 121 85 198.5t241 77.5q306 0 348 -272l-185 -38
q-28 167 -140 167q-64 0 -95.5 -45t-31.5 -110q0 -84 42 -120.5t157 -34.5z" />
    <glyph glyph-name="zeta" unicode="&#x3b6;" horiz-adv-x="674" 
d="M108 1208v157h528v-136q-346 -365 -346 -805q0 -135 31.5 -185t153.5 -60q94 -8 136.5 -49.5t42.5 -166.5q0 -146 -64 -304l-179 17q50 130 50 224q0 47 -22.5 73.5t-88.5 30.5q-102 5 -155.5 43t-87 119t-33.5 214q0 439 388 828h-354z" />
    <glyph glyph-name="eta" unicode="&#x3b7;" horiz-adv-x="925" 
d="M826 -341h-209v973q0 158 -35 201.5t-82 43.5q-77 0 -131.5 -79t-54.5 -225v-573h-209v1010h190v-141q98 166 258 166q93 0 156 -42t90 -117.5t27 -267.5v-949z" />
    <glyph glyph-name="theta" unicode="&#x3b8;" horiz-adv-x="941" 
d="M471 1390q397 0 397 -707q0 -708 -397 -708t-397 708q0 707 397 707zM284 772h374q0 475 -187 475t-187 -475zM284 643q6 -299 51 -411.5t136 -112.5t136 113t51 411h-374z" />
    <glyph glyph-name="iota" unicode="&#x3b9;" horiz-adv-x="454" 
d="M123 1010h208v-1010h-208v1010z" />
    <glyph glyph-name="kappa" unicode="&#x3ba;" horiz-adv-x="872" 
d="M123 1010h209v-452l326 452h206l-261 -349l290 -661h-225l-202 506l-134 -185v-321h-209v1010z" />
    <glyph glyph-name="lambda" unicode="&#x3bb;" horiz-adv-x="733" 
d="M-25 0l290 935l-123 430h221l394 -1365h-224l-174 669l-197 -669h-187z" />
    <glyph glyph-name="mu" unicode="&#x3bc;" horiz-adv-x="969" 
d="M123 -341v1351h209v-545q0 -202 44 -267t109 -65q71 0 111.5 66t40.5 266v545h209v-1010h-176v109q-51 -134 -182 -134q-104 0 -156 97v-413h-209z" />
    <glyph glyph-name="nu" unicode="&#x3bd;" horiz-adv-x="733" 
d="M-11 1010h205l189 -725l185 725h181l-286 -1010h-185z" />
    <glyph glyph-name="xi" unicode="&#x3be;" horiz-adv-x="732" 
d="M495 -322q45 140 45 204q0 66 -27.5 86.5t-108.5 27.5q-125 12 -195 44.5t-114 110.5t-44 200q0 282 274 378q-214 82 -214 221q0 176 265 258h-282v157h615v-157h-79q-297 0 -297 -223q0 -200 223 -200h70v-155h-70q-107 0 -160 -17.5t-88 -72.5t-35 -139q0 -86 25 -132
t64.5 -62t137.5 -28q134 -16 184 -59.5t50 -166.5q0 -115 -52 -314z" />
    <glyph glyph-name="omicron" unicode="&#x3bf;" 
d="M868 515q0 -540 -400 -540q-184 0 -289.5 130.5t-105.5 399.5q0 529 400 529q182 0 288.5 -129t106.5 -390zM647 505q0 213 -47.5 292.5t-128.5 79.5q-176 0 -176 -372q0 -190 41 -281t135 -91q93 0 134.5 92.5t41.5 279.5z" />
    <glyph glyph-name="pi" unicode="&#x3c0;" horiz-adv-x="940" 
d="M130 0v853h-101v157h882v-157h-101v-853h-209v853h-262v-853h-209z" />
    <glyph glyph-name="rho" unicode="&#x3c1;" horiz-adv-x="979" 
d="M111 -341v726q0 241 27 362.5t123.5 204.5t245.5 83q184 0 291.5 -134t107.5 -409q0 -241 -96.5 -379t-260.5 -138q-157 0 -229 130v-446h-209zM506 877q-181 0 -181 -379q0 -196 54 -280.5t128 -84.5q79 0 128 89.5t49 276.5q0 378 -178 378z" />
    <glyph glyph-name="sigma1" unicode="&#x3c2;" horiz-adv-x="854" 
d="M568 -321q40 104 40 203q0 60 -20 85.5t-83 33.5q-126 16 -196.5 51.5t-124 99t-82 155.5t-28.5 209q0 235 101.5 377.5t287.5 142.5q132 0 216.5 -74t126.5 -272l-192 -40q-24 227 -152 227q-79 0 -122.5 -87.5t-43.5 -241.5q0 -144 36 -220.5t92 -106t169 -50.5
q112 -21 161.5 -67.5t49.5 -149.5q0 -121 -54 -315z" />
    <glyph glyph-name="sigma" unicode="&#x3c3;" horiz-adv-x="953" 
d="M924 1010v-157h-196q141 -147 141 -383q0 -222 -105 -358.5t-293 -136.5q-191 0 -294 136.5t-103 388.5q0 247 100.5 391t286.5 144q70 0 143 -25h320zM468 864q-172 0 -172 -364q0 -195 49 -281t129 -86t126.5 91t46.5 275q0 365 -179 365z" />
    <glyph glyph-name="tau" unicode="&#x3c4;" horiz-adv-x="650" 
d="M224 0v853h-240v157h683v-157h-234v-853h-209z" />
    <glyph glyph-name="upsilon" unicode="&#x3c5;" horiz-adv-x="925" 
d="M111 1010h209v-597q0 -125 8 -174t43 -77.5t91 -28.5q58 0 92 28t43 75.5t9 176.5v597h209v-597q0 -181 -31 -264t-111.5 -128.5t-203.5 -45.5q-128 0 -208.5 41t-115 124t-34.5 273v597z" />
    <glyph glyph-name="phi" unicode="&#x3c6;" horiz-adv-x="1149" 
d="M472 -341v316q-208 26 -311 167.5t-103 353.5q0 352 247 476l66 -169q-108 -99 -108 -305q0 -310 209 -369v896q62 10 120 10q260 0 379.5 -149.5t119.5 -381.5q0 -222 -108.5 -363t-320.5 -166v-316h-190zM662 127q103 10 163.5 110.5t60.5 266.5t-59 265.5t-165 109.5
v-752z" />
    <glyph glyph-name="chi" unicode="&#x3c7;" horiz-adv-x="800" 
d="M284 391l-262 619h215l177 -461l190 461h189l-281 -655l295 -696h-216l-216 542l-227 -542h-189z" />
    <glyph glyph-name="psi" unicode="&#x3c8;" horiz-adv-x="1249" 
d="M521 -341v323q-146 5 -232.5 54t-132 134t-45.5 303v537h209v-537q0 -197 41 -262t160 -70v869h209v-869q93 1 146.5 51t53.5 281v537h209v-537q0 -178 -34.5 -275.5t-128.5 -153t-246 -62.5v-323h-209z" />
    <glyph glyph-name="omega" unicode="&#x3c9;" horiz-adv-x="1236" 
d="M713 771v-329q0 -200 24.5 -254.5t73.5 -54.5q129 0 129 317q0 304 -128 499l152 86q198 -244 198 -588q0 -220 -85 -346t-248 -126q-153 0 -211 157q-57 -157 -211 -157q-149 0 -241 117t-92 355q0 344 198 588l152 -86q-128 -195 -128 -499q0 -318 128 -318
q50 0 74.5 52t24.5 258v329h190z" />
    <glyph glyph-name="iotadieresis" unicode="&#x3ca;" horiz-adv-x="454" 
d="M123 1010h208v-1010h-208v1010zM-41 1265q0 44 32.5 74t76.5 30q43 0 76 -29t33 -75q0 -45 -34 -73.5t-75 -28.5q-40 0 -74.5 28t-34.5 74zM277 1265q0 43 32.5 73.5t76.5 30.5t76.5 -30t32.5 -74q0 -46 -34 -74t-75 -28t-75 28.5t-34 73.5z" />
    <glyph glyph-name="upsilondieresis" unicode="&#x3cb;" horiz-adv-x="925" 
d="M111 1010h209v-597q0 -125 8 -174t43 -77.5t91 -28.5q58 0 92 28t43 75.5t9 176.5v597h209v-597q0 -181 -31 -264t-111.5 -128.5t-203.5 -45.5q-128 0 -208.5 41t-115 124t-34.5 273v597zM195 1265q0 44 32.5 74t76.5 30q43 0 76 -29t33 -75q0 -45 -34 -73.5t-75 -28.5
q-40 0 -74.5 28t-34.5 74zM513 1265q0 43 32.5 73.5t76.5 30.5t76.5 -30t32.5 -74q0 -46 -34 -74t-75 -28t-75 28.5t-34 73.5z" />
    <glyph glyph-name="omicrontonos" unicode="&#x3cc;" 
d="M868 515q0 -540 -400 -540q-184 0 -289.5 130.5t-105.5 399.5q0 529 400 529q182 0 288.5 -129t106.5 -390zM647 505q0 213 -47.5 292.5t-128.5 79.5q-176 0 -176 -372q0 -190 41 -281t135 -91q93 0 134.5 92.5t41.5 279.5zM312 1208l321 281l108 -136l-353 -222z" />
    <glyph glyph-name="upsilontonos" unicode="&#x3cd;" horiz-adv-x="925" 
d="M111 1010h209v-597q0 -125 8 -174t43 -77.5t91 -28.5q58 0 92 28t43 75.5t9 176.5v597h209v-597q0 -181 -31 -264t-111.5 -128.5t-203.5 -45.5q-128 0 -208.5 41t-115 124t-34.5 273v597zM324 1208l321 281l108 -136l-353 -222z" />
    <glyph glyph-name="omegatonos" unicode="&#x3ce;" horiz-adv-x="1236" 
d="M713 771v-329q0 -200 24.5 -254.5t73.5 -54.5q129 0 129 317q0 304 -128 499l152 86q198 -244 198 -588q0 -220 -85 -346t-248 -126q-153 0 -211 157q-57 -157 -211 -157q-149 0 -241 117t-92 355q0 344 198 588l152 -86q-128 -195 -128 -499q0 -318 128 -318
q50 0 74.5 52t24.5 258v329h190zM520 1208l321 281l108 -136l-353 -222z" />
    <glyph glyph-name="afii10023" unicode="&#x401;" 
d="M131 1365h782v-181h-556v-390h436v-182h-436v-427h565v-185h-791v1365zM254 1614q0 44 32.5 74t76.5 30q43 0 76 -29t33 -75q0 -45 -34 -73.5t-75 -28.5q-40 0 -74.5 28t-34.5 74zM572 1614q0 43 32.5 73.5t76.5 30.5t76.5 -30t32.5 -74q0 -46 -34 -74t-75 -28t-75 28.5
t-34 73.5z" />
    <glyph glyph-name="afii10051" unicode="&#x402;" horiz-adv-x="1056" 
d="M167 0v1184h-185v181h820v-181h-410v-420q93 146 276 146q123 0 194 -54.5t98 -165t27 -389.5q0 -344 -46 -460.5t-129 -158t-222 -44.5v167q111 6 143 99t32 379q0 313 -40 391t-123 78q-85 0 -147.5 -72.5t-62.5 -237.5v-442h-225z" />
    <glyph glyph-name="afii10052" unicode="&#x403;" horiz-adv-x="769" 
d="M131 0v1365h662v-190h-437v-1175h-225zM278 1557l321 281l108 -136l-353 -222z" />
    <glyph glyph-name="afii10053" unicode="&#x404;" horiz-adv-x="1061" 
d="M723 792v-170h-406q12 -460 271 -460q100 0 151.5 69.5t75.5 206.5l205 -47q-76 -416 -441 -416q-249 0 -371 191t-122 511q0 330 123 521.5t378 191.5q339 0 425 -373l-203 -63q-38 249 -222 249q-249 0 -267 -411h403z" />
    <glyph glyph-name="afii10054" unicode="&#x405;" horiz-adv-x="1047" 
d="M944 1060l-193 -67q-34 108 -89.5 159.5t-151.5 51.5q-89 0 -137.5 -52.5t-48.5 -120.5q0 -75 54.5 -119.5t217.5 -106.5q139 -53 214 -101t121.5 -128.5t46.5 -186.5q0 -172 -121.5 -293t-340.5 -121q-378 0 -468 382l202 57q53 -252 276 -252q109 0 165.5 56.5
t56.5 139.5q0 61 -39 113t-194 111q-164 62 -236.5 105t-123.5 127t-51 191q0 163 113.5 274t301.5 111q333 0 425 -330z" />
    <glyph glyph-name="afii10055" unicode="&#x406;" horiz-adv-x="488" 
d="M131 1365h226v-1365h-226v1365z" />
    <glyph glyph-name="afii10056" unicode="&#x407;" horiz-adv-x="488" 
d="M131 1365h226v-1365h-226v1365zM-24 1614q0 44 32.5 74t76.5 30q43 0 76 -29t33 -75q0 -45 -34 -73.5t-75 -28.5q-40 0 -74.5 28t-34.5 74zM294 1614q0 43 32.5 73.5t76.5 30.5t76.5 -30t32.5 -74q0 -46 -34 -74t-75 -28t-75 28.5t-34 73.5z" />
    <glyph glyph-name="afii10057" unicode="&#x408;" horiz-adv-x="628" 
d="M276 1365h226v-849q0 -211 -24 -314t-103 -165t-227 -62q-76 0 -181 25v187q70 -19 132 -19q73 0 110.5 27t52 82.5t14.5 238.5v849z" />
    <glyph glyph-name="afii10058" unicode="&#x409;" horiz-adv-x="1472" 
d="M724 836h269q174 0 252.5 -40.5t128 -136.5t49.5 -240q0 -136 -47 -229.5t-129 -141.5t-210 -48h-378l-204 1134l-280 -1134h-208l369 1365h278zM858 190h163q77 0 128.5 53.5t51.5 179.5q0 127 -54 179.5t-126 52.5h-260z" />
    <glyph glyph-name="afii10059" unicode="&#x40a;" horiz-adv-x="1634" 
d="M958 815h208q164 0 244.5 -41.5t127.5 -133t47 -229.5q0 -189 -96.5 -300t-278.5 -111h-477v634h-377v-634h-225v1365h225v-550h377v550h225v-550zM958 190h224q74 0 127.5 54t53.5 172q0 104 -47.5 161t-133.5 57h-224v-444z" />
    <glyph glyph-name="afii10060" unicode="&#x40b;" horiz-adv-x="1093" 
d="M392 1184v-413q96 140 263 140q328 0 328 -441v-470h-225v481q0 258 -161 258q-69 0 -126 -47.5t-79 -136.5v-555h-225v1184h-185v181h824v-181h-414z" />
    <glyph glyph-name="afii10061" unicode="&#x40c;" horiz-adv-x="1047" 
d="M131 1365h226v-651l412 651h239l-352 -501l412 -864h-245l-305 677l-161 -229v-448h-226v1365zM416 1557l321 281l108 -136l-353 -222z" />
    <glyph glyph-name="afii10062" unicode="&#x40e;" horiz-adv-x="873" 
d="M376 395l-397 970h231l261 -695l226 695h204l-348 -1032q-65 -193 -135 -263t-208 -70h-93v195h93q28 0 69.5 19t79.5 131zM170 1738h140q31 -112 167 -112q134 0 165 112h141q-51 -244 -306 -244q-256 0 -307 244z" />
    <glyph glyph-name="afii10145" unicode="&#x40f;" horiz-adv-x="1108" 
d="M356 190h396v1175h225v-1365h-328l-16 -291h-157l-17 291h-328v1365h225v-1175z" />
    <glyph glyph-name="afii10017" unicode="&#x410;" horiz-adv-x="1012" 
d="M387 1365h253l366 -1365h-229l-86 342h-399l-84 -342h-216zM646 520l-155 625l-154 -625h309z" />
    <glyph glyph-name="afii10018" unicode="&#x411;" horiz-adv-x="1071" 
d="M131 0v1365h723v-181h-498v-346h193q160 0 244.5 -36t140 -142t55.5 -255q0 -191 -99.5 -298t-283.5 -107h-475zM356 190h226q69 0 127 51t58 177q0 239 -206 239h-205v-467z" />
    <glyph glyph-name="afii10019" unicode="&#x412;" horiz-adv-x="1116" 
d="M131 1365h413q156 0 237 -25t137 -111.5t56 -210.5q0 -227 -203 -299q245 -77 245 -343q0 -151 -96.5 -263.5t-369.5 -112.5h-419v1365zM352 799h143q151 0 199 55.5t48 143.5q0 103 -55 147.5t-170 44.5h-165v-391zM352 181h182q250 0 250 221q0 86 -53 154t-216 68
h-163v-443z" />
    <glyph glyph-name="afii10020" unicode="&#x413;" horiz-adv-x="769" 
d="M131 0v1365h662v-190h-437v-1175h-225z" />
    <glyph glyph-name="afii10021" unicode="&#x414;" horiz-adv-x="1094" 
d="M99 190l297 1175h332l269 -1175h77v-481h-157l-26 291h-688l-25 -291h-157v481h78zM302 190h460l-192 944h-55z" />
    <glyph glyph-name="afii10022" unicode="&#x415;" 
d="M131 1365h782v-181h-556v-390h436v-182h-436v-427h565v-185h-791v1365z" />
    <glyph glyph-name="afii10024" unicode="&#x416;" horiz-adv-x="1366" 
d="M1006 783l412 -783h-238l-344 649l-47 -23v-626h-209v626l-48 23l-342 -649h-211l385 712l-355 653h234l314 -582l23 -11v593h209v-593l23 11l314 582h212z" />
    <glyph glyph-name="afii10025" unicode="&#x417;" horiz-adv-x="1032" 
d="M49 384l204 39q43 -262 253 -262q102 0 154.5 68.5t52.5 167.5q0 115 -52.5 172t-130.5 57h-109v162h109q56 0 110.5 51.5t54.5 158.5q0 95 -55 150.5t-144 55.5q-183 0 -221 -225l-195 31q58 380 425 380q199 0 305.5 -103.5t106.5 -255.5q0 -219 -218 -306
q251 -73 251 -322q0 -182 -112.5 -305t-331.5 -123q-401 0 -457 409z" />
    <glyph glyph-name="afii10026" unicode="&#x418;" horiz-adv-x="1144" 
d="M356 121v-121h-225v1365h225v-766q0 -14 -7 -189q41 118 118 254l321 568v133h225v-1365h-225v708q0 10 7 235q-43 -117 -120 -255z" />
    <glyph glyph-name="afii10027" unicode="&#x419;" horiz-adv-x="1144" 
d="M356 121v-121h-225v1365h225v-766q0 -14 -7 -189q41 118 118 254l321 568v133h225v-1365h-225v708q0 10 7 235q-43 -117 -120 -255zM272 1738h140q31 -112 167 -112q134 0 165 112h141q-51 -244 -306 -244q-256 0 -307 244z" />
    <glyph glyph-name="afii10028" unicode="&#x41a;" horiz-adv-x="1047" 
d="M131 1365h226v-651l412 651h239l-352 -501l412 -864h-245l-305 677l-161 -229v-448h-226v1365z" />
    <glyph glyph-name="afii10029" unicode="&#x41b;" horiz-adv-x="933" 
d="M175 0h-208l369 1365h278l351 -1365h-238l-272 1134z" />
    <glyph glyph-name="afii10030" unicode="&#x41c;" horiz-adv-x="1465" 
d="M126 1365h335l272 -984l279 984h321v-1365h-212v1165l-324 -1165h-164l-318 1166v-1166h-189v1365z" />
    <glyph glyph-name="afii10031" unicode="&#x41d;" horiz-adv-x="1116" 
d="M131 1365h226v-566h402v566h226v-1365h-226v608h-402v-608h-226v1365z" />
    <glyph glyph-name="afii10032" unicode="&#x41e;" horiz-adv-x="1152" 
d="M1067 683q0 -350 -125 -529t-363 -179q-239 0 -366 178.5t-127 529.5q0 348 126 527.5t366 179.5q237 0 363 -178.5t126 -528.5zM830 683q0 243 -56.5 382.5t-197.5 139.5t-197 -140t-56 -382q0 -238 55 -380t201 -142q137 0 194 137.5t57 384.5z" />
    <glyph glyph-name="afii10033" unicode="&#x41f;" horiz-adv-x="1086" 
d="M131 0v1365h824v-1365h-226v1184h-373v-1184h-225z" />
    <glyph glyph-name="afii10034" unicode="&#x420;" horiz-adv-x="1012" 
d="M131 1365h338q162 0 263 -30.5t170 -135t69 -251.5q0 -135 -56 -232t-150.5 -140t-290.5 -43h-117v-533h-226v1365zM357 1190v-476h112q150 0 207.5 56t57.5 182q0 94 -38 152.5t-83.5 72t-143.5 13.5h-112z" />
    <glyph glyph-name="afii10035" unicode="&#x421;" horiz-adv-x="1081" 
d="M817 459l208 -29q-64 -455 -447 -455q-249 0 -371 191t-122 511q0 345 129 529t372 184q376 0 441 -466l-210 -31q-34 310 -230 310q-262 0 -262 -539q0 -502 262 -502q105 0 156.5 76.5t73.5 220.5z" />
    <glyph glyph-name="afii10036" unicode="&#x422;" horiz-adv-x="768" 
d="M-32 1365h833v-192h-305v-1173h-226v1173h-302v192z" />
    <glyph glyph-name="afii10037" unicode="&#x423;" horiz-adv-x="873" 
d="M376 395l-397 970h231l261 -695l226 695h204l-348 -1032q-65 -193 -135 -263t-208 -70h-93v195h93q28 0 69.5 19t79.5 131z" />
    <glyph glyph-name="afii10038" unicode="&#x424;" horiz-adv-x="1294" 
d="M552 128q-237 25 -351.5 176t-114.5 372q0 253 127 398t339 165v169h190v-169q225 -24 345.5 -172t120.5 -383q0 -485 -466 -556v-170h-190v170zM552 1075q-244 -58 -244 -399q0 -323 244 -384v783zM742 292q244 59 244 399q0 323 -244 384v-783z" />
    <glyph glyph-name="afii10039" unicode="&#x425;" horiz-adv-x="907" 
d="M16 1365h251l196 -435l218 435h211l-316 -620l359 -745h-254l-232 523l-263 -523h-214l365 707z" />
    <glyph glyph-name="afii10040" unicode="&#x426;" horiz-adv-x="1121" 
d="M131 0v1365h225v-1175h396v1175h226v-1175h143v-481h-157l-27 291h-806z" />
    <glyph glyph-name="afii10041" unicode="&#x427;" horiz-adv-x="1055" 
d="M699 0v573q-105 -128 -269 -128q-103 0 -180.5 50t-114.5 138.5t-37 256.5v475h225v-487q0 -140 38 -194t117 -54q122 0 221 124v611h225v-1365h-225z" />
    <glyph glyph-name="afii10042" unicode="&#x428;" horiz-adv-x="1593" 
d="M131 0v1365h225v-1175h328v1175h225v-1175h328v1175h225v-1365h-1331z" />
    <glyph glyph-name="afii10043" unicode="&#x429;" horiz-adv-x="1606" 
d="M1462 190h144v-481h-157l-28 291h-1290v1365h225v-1175h328v1175h225v-1175h328v1175h225v-1175z" />
    <glyph glyph-name="afii10044" unicode="&#x42a;" horiz-adv-x="1122" 
d="M230 1175h-279v190h504v-529h189q160 0 243 -36.5t135 -135.5t52 -243q0 -188 -94.5 -304.5t-291.5 -116.5h-458v1175zM455 190h217q77 0 128 54t51 179q0 128 -53.5 180t-125.5 52h-217v-465z" />
    <glyph glyph-name="afii10045" unicode="&#x42b;" horiz-adv-x="1443" 
d="M131 0v1365h225v-529h190q154 0 238.5 -34.5t137.5 -136t53 -243.5q0 -189 -94.5 -305.5t-291.5 -116.5h-458zM356 190h218q77 0 128 54t51 179q0 127 -53.5 179.5t-125.5 52.5h-218v-465zM1086 1365h226v-1365h-226v1365z" />
    <glyph glyph-name="afii10046" unicode="&#x42c;" horiz-adv-x="1024" 
d="M131 0v1365h225v-529h190q154 0 238.5 -34.5t137.5 -136t53 -243.5q0 -189 -94.5 -305.5t-291.5 -116.5h-458zM356 190h218q77 0 128 54t51 179q0 127 -53.5 179.5t-125.5 52.5h-218v-465z" />
    <glyph glyph-name="afii10047" unicode="&#x42d;" horiz-adv-x="1061" 
d="M338 622v170h403q-18 411 -267 411q-184 0 -222 -249l-203 63q86 373 426 373q256 0 378 -194.5t122 -511.5q0 -328 -122.5 -518.5t-370.5 -190.5q-365 0 -441 416l206 47q24 -140 75.5 -208t148.5 -68q260 0 273 460h-406z" />
    <glyph glyph-name="afii10048" unicode="&#x42e;" horiz-adv-x="1610" 
d="M545 625h-189v-625h-225v1365h225v-558h193q47 583 487 583q239 0 363.5 -179.5t124.5 -527.5q0 -350 -125 -529t-363 -179q-465 0 -491 650zM1287 682q0 167 -26.5 287.5t-81 177.5t-145.5 57q-141 0 -197 -138.5t-56 -383.5q0 -242 56 -381.5t197 -139.5
q142 0 197.5 139.5t55.5 381.5z" />
    <glyph glyph-name="afii10049" unicode="&#x42f;" horiz-adv-x="1081" 
d="M950 1365h-411q-223 0 -329 -101t-106 -290q0 -252 209 -357l-259 -617h245l213 570h212v-570h226v1365zM724 1190v-445h-173q-116 0 -170.5 64t-54.5 167q0 214 223 214h175z" />
    <glyph glyph-name="afii10065" unicode="&#x430;" 
d="M310 724l-201 25q20 135 124.5 210t256.5 75q136 0 217.5 -54.5t102.5 -129.5t21 -227v-344q0 -209 18 -279h-197q-13 55 -13 168q-95 -193 -284 -193q-128 0 -205.5 78.5t-77.5 213.5q0 165 113.5 261t393.5 96q14 0 44 -1v41q0 108 -32.5 163t-116.5 55
q-137 0 -164 -158zM623 492q-40 4 -61 4q-272 0 -272 -213q0 -155 135 -155q79 0 138.5 84t59.5 231v49z" />
    <glyph glyph-name="afii10066" unicode="&#x431;" horiz-adv-x="944" 
d="M571 1454h208q-3 -67 -45 -121t-190 -92q-98 -25 -139.5 -51t-73.5 -90t-46 -170q93 105 227 105q170 0 264.5 -141.5t94.5 -385.5q0 -253 -103.5 -393t-293.5 -140q-130 0 -216.5 58.5t-135 177.5t-48.5 338q0 700 349 792q92 24 117 43.5t31 69.5zM466 877
q-186 0 -186 -381q0 -185 51 -274t138 -89q84 0 132 90.5t48 273.5q0 380 -183 380z" />
    <glyph glyph-name="afii10067" unicode="&#x432;" horiz-adv-x="940" 
d="M123 0v1010h455q152 0 207.5 -76t55.5 -172q0 -163 -179 -234q209 -61 209 -253q0 -122 -66 -198.5t-187 -76.5h-495zM332 578h188q127 0 127 142q0 81 -30.5 115t-96.5 34h-188v-291zM332 158h202q132 0 132 154q0 156 -132 156h-202v-310z" />
    <glyph glyph-name="afii10068" unicode="&#x433;" horiz-adv-x="656" 
d="M656 1010v-157h-324v-853h-209v1010h533z" />
    <glyph glyph-name="afii10069" unicode="&#x434;" horiz-adv-x="924" 
d="M137 158l204 852h311l183 -852h75v-394h-139l-25 236h-520l-25 -236h-139v394h75zM320 158h307l-136 689h-28z" />
    <glyph glyph-name="afii10070" unicode="&#x435;" horiz-adv-x="907" 
d="M857 474h-571q0 -205 55.5 -273.5t139.5 -68.5q140 0 177 189l190 -25q-75 -321 -374 -321q-183 0 -292 131t-109 384q0 260 110 402t294 142q129 0 217 -71t124 -186.5t39 -302.5zM644 615q0 267 -174 267q-163 0 -179 -267h353z" />
    <glyph glyph-name="afii10072" unicode="&#x436;" horiz-adv-x="1122" 
d="M868 604l298 -604h-215l-232 465l-57 -18v-447h-197v447l-58 18l-239 -465h-193l290 536l-260 474h205l211 -395l44 -11v406h197v-406l44 11l211 395h194z" />
    <glyph glyph-name="afii10073" unicode="&#x437;" horiz-adv-x="819" 
d="M306 450v132q105 0 152 31.5t47 130.5q0 148 -113 148q-116 0 -145 -167l-186 38q23 122 109.5 197t231.5 75q156 0 240.5 -74.5t84.5 -197.5q0 -160 -168 -233q193 -64 193 -247q0 -136 -88.5 -222t-251.5 -86q-178 0 -261.5 82t-109.5 209l188 37q38 -184 162 -184
q68 0 103.5 50.5t35.5 123.5q0 61 -26.5 99.5t-63.5 48t-134 9.5z" />
    <glyph glyph-name="afii10074" unicode="&#x438;" horiz-adv-x="968" 
d="M332 103v-103h-209v1010h209v-438q0 -161 -7 -209q44 95 106 194l205 322v131h209v-1010h-209v413q0 167 7 209q-43 -108 -117 -222z" />
    <glyph glyph-name="afii10075" unicode="&#x439;" horiz-adv-x="968" 
d="M332 103v-103h-209v1010h209v-438q0 -161 -7 -209q44 95 106 194l205 322v131h209v-1010h-209v413q0 167 7 209q-43 -108 -117 -222zM178 1382h140q31 -112 167 -112q134 0 165 112h141q-51 -244 -306 -244q-256 0 -307 244z" />
    <glyph glyph-name="afii10076" unicode="&#x43a;" horiz-adv-x="872" 
d="M123 1010h209v-452l326 452h206l-261 -349l290 -661h-225l-202 506l-134 -185v-321h-209v1010z" />
    <glyph glyph-name="afii10077" unicode="&#x43b;" horiz-adv-x="733" 
d="M-25 0l280 1010h242l260 -1010h-219l-179 806l-197 -806h-187z" />
    <glyph glyph-name="afii10078" unicode="&#x43c;" horiz-adv-x="1248" 
d="M119 0v1010h304l212 -847l206 847h285v-1010h-190v825l-219 -825h-214l-215 825v-825h-169z" />
    <glyph glyph-name="afii10079" unicode="&#x43d;" horiz-adv-x="965" 
d="M123 0v1010h209v-401h302v401h209v-1010h-209v452h-302v-452h-209z" />
    <glyph glyph-name="afii10080" unicode="&#x43e;" 
d="M868 515q0 -540 -400 -540q-184 0 -289.5 130.5t-105.5 399.5q0 529 400 529q182 0 288.5 -129t106.5 -390zM647 505q0 213 -47.5 292.5t-128.5 79.5q-176 0 -176 -372q0 -190 41 -281t135 -91q93 0 134.5 92.5t41.5 279.5z" />
    <glyph glyph-name="afii10081" unicode="&#x43f;" horiz-adv-x="929" 
d="M123 0v1010h683v-1010h-209v869h-265v-869h-209z" />
    <glyph glyph-name="afii10082" unicode="&#x440;" horiz-adv-x="977" 
d="M122 1010h192v-166q79 183 250 183q153 0 247 -133.5t94 -380.5q0 -221 -85.5 -376t-265.5 -155q-144 0 -225 123v-447h-207v1352zM329 422q0 -97 14.5 -151.5t59.5 -93t102 -38.5q178 0 178 374q0 362 -174 362q-77 0 -128.5 -74t-51.5 -211v-168z" />
    <glyph glyph-name="afii10083" unicode="&#x441;" horiz-adv-x="837" 
d="M823 670l-201 -22q-15 132 -51 176.5t-102 44.5q-93 0 -135 -85.5t-42 -300.5q0 -336 177 -336q136 0 153 219l201 -18q-41 -373 -369 -373q-194 0 -287.5 140t-93.5 387q0 260 101 396t294 136q311 0 355 -364z" />
    <glyph glyph-name="afii10084" unicode="&#x442;" horiz-adv-x="631" 
d="M215 0v853h-231v157h664v-157h-224v-853h-209z" />
    <glyph glyph-name="afii10085" unicode="&#x443;" horiz-adv-x="733" 
d="M-1 1010h209l176 -694l181 694h188l-328 -1074q-36 -117 -66 -173t-85 -90.5t-142 -34.5q-52 0 -107 14v166q40 -7 73 -7q81 0 115 39.5t73 183.5z" />
    <glyph glyph-name="afii10086" unicode="&#x444;" horiz-adv-x="1160" 
d="M491 -341v341q-206 25 -311.5 160.5t-105.5 334.5q0 439 417 515v337h178v-337q417 -83 417 -512q0 -203 -106 -338t-311 -160v-341h-178zM491 132v742q-212 -65 -212 -371t212 -371zM669 132q212 65 212 371q0 307 -212 371v-742z" />
    <glyph glyph-name="afii10087" unicode="&#x445;" horiz-adv-x="733" 
d="M-3 1010h231l148 -294l154 294h194l-255 -457l298 -553h-232l-183 357l-190 -357h-197l293 524z" />
    <glyph glyph-name="afii10088" unicode="&#x446;" horiz-adv-x="949" 
d="M123 0v1010h209v-852h277v852h209v-852h127v-394h-140l-24 236h-658z" />
    <glyph glyph-name="afii10089" unicode="&#x447;" horiz-adv-x="888" 
d="M556 0v386q-79 -72 -204 -72q-105 0 -181.5 63t-76.5 217v416h209v-383q0 -155 117 -155q81 0 136 52v486h209v-1010h-209z" />
    <glyph glyph-name="afii10090" unicode="&#x448;" horiz-adv-x="1371" 
d="M123 0v1010h209v-852h249v852h209v-852h249v852h209v-1010h-1125z" />
    <glyph glyph-name="afii10091" unicode="&#x449;" horiz-adv-x="1379" 
d="M123 0v1010h209v-852h249v852h209v-852h249v852h209v-852h127v-394h-138l-24 236h-1090z" />
    <glyph glyph-name="afii10092" unicode="&#x44a;" horiz-adv-x="919" 
d="M172 0v853h-221v157h430v-386h220q129 0 203 -79.5t74 -233.5q0 -311 -291 -311h-415zM381 158h169q124 0 124 159q0 166 -124 166h-169v-325z" />
    <glyph glyph-name="afii10093" unicode="&#x44b;" horiz-adv-x="1245" 
d="M123 0v1010h209v-386h220q152 0 214.5 -93t62.5 -220q0 -311 -291 -311h-415zM332 158h169q123 0 123 159q0 166 -123 166h-169v-325zM913 0v1010h209v-1010h-209z" />
    <glyph glyph-name="afii10094" unicode="&#x44c;" horiz-adv-x="870" 
d="M123 0v1010h209v-386h220q152 0 214.5 -93t62.5 -220q0 -311 -291 -311h-415zM332 158h169q123 0 123 159q0 166 -123 166h-169v-325z" />
    <glyph glyph-name="afii10095" unicode="&#x44d;" horiz-adv-x="842" 
d="M237 446v142h317q-14 282 -179 282q-120 0 -147 -163l-197 36q64 292 342 292q197 0 296.5 -139t99.5 -390q0 -531 -384 -531q-302 0 -356 306l196 40q19 -174 148 -174q178 0 183 299h-319z" />
    <glyph glyph-name="afii10096" unicode="&#x44e;" horiz-adv-x="1352" 
d="M497 449h-165v-449h-209v1001h209v-399h168q37 433 383 433q195 0 295.5 -136.5t100.5 -383.5q0 -540 -394 -540q-363 0 -388 474zM1057 505q0 188 -41.5 280t-134.5 92q-92 0 -134 -91t-42 -281q0 -187 41.5 -279.5t134.5 -92.5t134.5 92t41.5 280z" />
    <glyph glyph-name="afii10097" unicode="&#x44f;" horiz-adv-x="888" 
d="M574 0v403h-183l-153 -403h-212l196 446q-152 71 -152 251q0 136 62 224.5t251 88.5h400v-1010h-209zM574 544v325h-156q-75 0 -109 -40t-34 -130q0 -68 30.5 -111.5t126.5 -43.5h142z" />
    <glyph glyph-name="afii10071" unicode="&#x451;" horiz-adv-x="907" 
d="M857 474h-571q0 -205 55.5 -273.5t139.5 -68.5q140 0 177 189l190 -25q-75 -321 -374 -321q-183 0 -292 131t-109 384q0 260 110 402t294 142q129 0 217 -71t124 -186.5t39 -302.5zM644 615q0 267 -174 267q-163 0 -179 -267h353zM209 1265q0 44 32.5 74t76.5 30
q43 0 76 -29t33 -75q0 -45 -34 -73.5t-75 -28.5q-40 0 -74.5 28t-34.5 74zM527 1265q0 43 32.5 73.5t76.5 30.5t76.5 -30t32.5 -74q0 -46 -34 -74t-75 -28t-75 28.5t-34 73.5z" />
    <glyph glyph-name="afii10099" unicode="&#x452;" horiz-adv-x="933" 
d="M123 0v1142h-147v127h147v119h209v-119h329v-127h-329v-289q86 137 240 137q104 0 168.5 -65t82 -187t17.5 -440q0 -330 -27 -432t-98.5 -155.5t-166.5 -53.5q-14 0 -42 2l-15 141q47 0 87.5 37.5t54 124t13.5 311.5q0 359 -25 451.5t-111 92.5q-77 0 -127.5 -76
t-50.5 -227v-514h-209z" />
    <glyph glyph-name="afii10100" unicode="&#x453;" horiz-adv-x="656" 
d="M656 1010v-157h-324v-853h-209v1010h533zM230 1208l321 281l108 -136l-353 -222z" />
    <glyph glyph-name="afii10101" unicode="&#x454;" horiz-adv-x="842" 
d="M606 588v-142h-320q5 -299 184 -299q128 0 148 174l195 -40q-56 -306 -353 -306q-386 0 -386 527q0 260 101 396.5t294 136.5q279 0 343 -292l-198 -36q-26 163 -146 163q-164 0 -179 -282h317z" />
    <glyph glyph-name="afii10102" unicode="&#x455;" horiz-adv-x="803" 
d="M731 774l-163 -44q-45 152 -171 152q-58 0 -93.5 -36t-35.5 -89q0 -60 36 -88t165 -70q159 -53 229 -119.5t70 -185.5q0 -134 -100 -226.5t-270 -92.5q-321 0 -364 294l177 33q34 -174 193 -174q81 0 120.5 40t39.5 95q0 38 -27 75.5t-151 77.5q-119 38 -179.5 71
t-99.5 95.5t-39 141.5q0 129 94 219.5t243 90.5q253 0 326 -260z" />
    <glyph glyph-name="afii10103" unicode="&#x456;" horiz-adv-x="454" 
d="M336 1146h-218v221h218v-221zM123 1010h208v-1010h-208v1010z" />
    <glyph glyph-name="afii10104" unicode="&#x457;" horiz-adv-x="454" 
d="M123 1010h208v-1010h-208v1010zM-41 1265q0 44 32.5 74t76.5 30q43 0 76 -29t33 -75q0 -45 -34 -73.5t-75 -28.5q-40 0 -74.5 28t-34.5 74zM277 1265q0 43 32.5 73.5t76.5 30.5t76.5 -30t32.5 -74q0 -46 -34 -74t-75 -28t-75 28.5t-34 73.5z" />
    <glyph glyph-name="afii10105" unicode="&#x458;" horiz-adv-x="454" 
d="M341 1146h-219v221h219v-221zM127 1010h208v-974q0 -155 -15 -229t-75.5 -122t-168.5 -48q-58 0 -128 15v173q40 -10 75 -10q69 0 86.5 39t17.5 185v971z" />
    <glyph glyph-name="afii10106" unicode="&#x459;" horiz-adv-x="1214" 
d="M628 624h295q153 0 215.5 -93.5t62.5 -219.5q0 -311 -291 -311h-367l-132 806l-224 -806h-187l308 1010h241zM723 158h149q124 0 124 159q0 166 -124 166h-215z" />
    <glyph glyph-name="afii10107" unicode="&#x45a;" horiz-adv-x="1366" 
d="M619 463h-287v-463h-209v1010h209v-405h287v405h209v-405h220q130 0 203.5 -75.5t73.5 -218.5q0 -311 -291 -311h-415v463zM828 158h169q123 0 123 154q0 151 -123 151h-169v-305z" />
    <glyph glyph-name="afii10108" unicode="&#x45b;" horiz-adv-x="937" 
d="M122 1269v124h209v-124h323v-127h-323v-298q82 145 240 145q103 0 163 -45.5t84.5 -123.5t24.5 -228v-592h-209v570q0 138 -27.5 192.5t-92.5 54.5q-74 0 -128.5 -79t-54.5 -224v-514h-209v1142h-147v127h147z" />
    <glyph glyph-name="afii10109" unicode="&#x45c;" horiz-adv-x="874" 
d="M123 1010h209v-452l326 452h206l-261 -349l290 -661h-225l-202 506l-134 -185v-321h-209v1010zM339 1208l321 281l108 -136l-353 -222z" />
    <glyph glyph-name="afii10110" unicode="&#x45e;" horiz-adv-x="733" 
d="M-1 1010h209l176 -694l181 694h188l-328 -1074q-36 -117 -66 -173t-85 -90.5t-142 -34.5q-52 0 -107 14v166q40 -7 73 -7q81 0 115 39.5t73 183.5zM87 1382h140q31 -112 167 -112q134 0 165 112h141q-51 -244 -306 -244q-256 0 -307 244z" />
    <glyph glyph-name="afii10193" unicode="&#x45f;" horiz-adv-x="941" 
d="M123 0v1010h209v-852h277v852h209v-1010h-260l-18 -236h-139l-18 236h-260z" />
    <glyph glyph-name="afii10050" unicode="&#x490;" horiz-adv-x="769" 
d="M793 1621v-446h-437v-1175h-225v1365h484v256h178z" />
    <glyph glyph-name="afii10098" unicode="&#x491;" horiz-adv-x="656" 
d="M487 1010v219h169v-376h-324v-853h-209v1010h364z" />
    <glyph glyph-name="Wgrave" unicode="&#x1e80;" horiz-adv-x="1430" 
d="M5 1365h229l185 -1022l214 1022h196l212 -1023l194 1023h191l-287 -1368h-204l-216 1002l-212 -1002h-208zM933 1557l-76 -77l-353 222l108 136z" />
    <glyph glyph-name="wgrave" unicode="&#x1e81;" horiz-adv-x="1151" 
d="M-2 1010h205l150 -694l145 694h183l144 -698l160 698h169l-250 -1010h-177l-153 700l-146 -700h-177zM785 1208l-76 -77l-353 222l108 136z" />
    <glyph glyph-name="Wacute" unicode="&#x1e82;" horiz-adv-x="1430" 
d="M5 1365h229l185 -1022l214 1022h196l212 -1023l194 1023h191l-287 -1368h-204l-216 1002l-212 -1002h-208zM536 1557l321 281l108 -136l-353 -222z" />
    <glyph glyph-name="wacute" unicode="&#x1e83;" horiz-adv-x="1151" 
d="M-2 1010h205l150 -694l145 694h183l144 -698l160 698h169l-250 -1010h-177l-153 700l-146 -700h-177zM423 1208l321 281l108 -136l-353 -222z" />
    <glyph glyph-name="Wdieresis" unicode="&#x1e84;" horiz-adv-x="1430" 
d="M5 1365h229l185 -1022l214 1022h196l212 -1023l194 1023h191l-287 -1368h-204l-216 1002l-212 -1002h-208zM459 1614q0 44 32.5 74t76.5 30q43 0 76 -29t33 -75q0 -45 -34 -73.5t-75 -28.5q-40 0 -74.5 28t-34.5 74zM777 1614q0 43 32.5 73.5t76.5 30.5t76.5 -30
t32.5 -74q0 -46 -34 -74t-75 -28t-75 28.5t-34 73.5z" />
    <glyph glyph-name="wdieresis" unicode="&#x1e85;" horiz-adv-x="1151" 
d="M-2 1010h205l150 -694l145 694h183l144 -698l160 698h169l-250 -1010h-177l-153 700l-146 -700h-177zM308 1265q0 44 32.5 74t76.5 30q43 0 76 -29t33 -75q0 -45 -34 -73.5t-75 -28.5q-40 0 -74.5 28t-34.5 74zM626 1265q0 43 32.5 73.5t76.5 30.5t76.5 -30t32.5 -74
q0 -46 -34 -74t-75 -28t-75 28.5t-34 73.5z" />
    <glyph glyph-name="Ygrave" unicode="&#x1ef2;" horiz-adv-x="837" 
d="M-65 1365h245l251 -569l255 569h216l-379 -788v-577h-225v577zM622 1557l-76 -77l-353 222l108 136z" />
    <glyph glyph-name="ygrave" unicode="&#x1ef3;" horiz-adv-x="733" 
d="M-1 1010h209l176 -694l181 694h188l-328 -1074q-36 -117 -66 -173t-85 -90.5t-142 -34.5q-52 0 -107 14v166q40 -7 73 -7q81 0 115 39.5t73 183.5zM571 1208l-76 -77l-353 222l108 136z" />
    <glyph glyph-name="afii00208" unicode="&#x2015;" horiz-adv-x="1291" 
d="M63 593h1165v-161h-1165v161z" />
    <glyph glyph-name="underscoredbl" unicode="&#x2017;" horiz-adv-x="1024" 
d="M0 -101h1024v-144h-1024v144zM0 -341h1024v-144h-1024v144z" />
    <glyph glyph-name="quotereversed" unicode="&#x201b;" horiz-adv-x="453" 
d="M326 1365v-254h-97l117 -249h-100l-138 256v247h218z" />
    <glyph glyph-name="minute" unicode="&#x2032;" horiz-adv-x="438" 
d="M212 817h-157l158 548h224z" />
    <glyph glyph-name="second" unicode="&#x2033;" horiz-adv-x="775" 
d="M199 817h-157l158 548h224zM604 817h-157l158 548h224z" />
    <glyph glyph-name="exclamdbl" unicode="&#x203c;" horiz-adv-x="1024" 
d="M115 1365h277l-70 -997h-137zM605 1365h277l-70 -997h-137zM139 251h228v-251h-228v251zM630 251h228v-251h-228v251z" />
    <glyph glyph-name="radicalex" unicode="&#x203e;" horiz-adv-x="1135" 
d="M-42 1869h1219v-74h-1219v74z" />
    <glyph glyph-name="fraction1" unicode="&#x2044;" horiz-adv-x="176" 
d="M348 1365h146l-666 -1365h-146z" />
    <glyph glyph-name="nsuperior" unicode="&#x207f;" horiz-adv-x="628" 
d="M77 1159h124v-90q66 104 175 104q66 0 111 -31t56.5 -74.5t11.5 -129.5v-392h-160v385q0 75 -17 96.5t-47 21.5q-94 0 -94 -161v-342h-160v613z" />
    <glyph glyph-name="afii08941" unicode="&#x20a4;" horiz-adv-x="1046" 
d="M528 918h278v-148h-255q10 -69 17 -131h238v-148h-232q-10 -199 -167 -313h153q157 0 229 39t120 144l162 -85q-48 -124 -108 -180t-145 -76t-258 -20h-519v180h70q257 0 257 311h-212v148h197l-22 131h-175v148h154q-5 50 -5 91q0 175 96 278t266 103q240 0 328 -218
l-161 -99q-53 145 -166 145q-147 0 -147 -204q0 -43 7 -96z" />
    <glyph glyph-name="peseta" unicode="&#x20a7;" horiz-adv-x="1945" 
d="M131 1365h276q150 0 240 -31.5t152.5 -134t62.5 -251.5q0 -137 -52 -234.5t-137.5 -139t-259.5 -41.5h-63v-533h-219v1365zM350 1197v-490h57q125 0 175 55.5t50 190.5q0 99 -33.5 158.5t-71.5 72.5t-120 13h-57zM1094 444v-55q0 -120 6 -157.5t36.5 -62t86.5 -24.5
q22 0 42 7v-159q-55 -18 -115 -18q-104 0 -160.5 45t-72 122t-15.5 240v62h-104v156h110l11 223l175 18v-241h144v-156h-144zM1315 164l158 39q33 -107 125 -107t92 67q0 25 -18 41.5t-91 36.5q-164 45 -203 97.5t-39 104.5q0 83 73.5 141.5t184.5 58.5q197 0 253 -166
l-144 -49q-39 94 -112 94q-72 0 -72 -62q0 -29 20.5 -42.5t105.5 -37.5q154 -44 191.5 -96.5t37.5 -102.5q0 -84 -76.5 -145t-205.5 -61q-243 0 -280 189z" />
    <glyph glyph-name="afii61248" unicode="&#x2105;" horiz-adv-x="1570" 
d="M649 1137l-152 -15q-10 86 -33 116.5t-68 30.5q-66 0 -93 -57.5t-27 -193.5q0 -219 119 -219q91 0 102 146l152 -12q-28 -259 -265 -259q-272 0 -272 355q0 361 282 361q224 0 255 -253zM1033 1365h145l-666 -1365h-145zM1457 341q0 -366 -285 -366q-133 0 -208 89
t-75 269q0 359 286 359q138 0 210 -92t72 -259zM1291 342q0 242 -118 242t-118 -242q0 -243 118 -243t118 243z" />
    <glyph glyph-name="afii61289" unicode="&#x2113;" horiz-adv-x="1046" 
d="M544 547q-59 -312 -59 -384q0 -63 33 -63q43 0 89 102q18 40 43 40q33 0 33 -39q0 -73 -68.5 -152.5t-152.5 -79.5q-153 0 -153 244q0 66 8 166q-63 -61 -77 -61t-25.5 14t-11.5 31q0 26 33 59q43 43 96 107q64 358 167 607t253 249q69 0 110 -50.5t41 -133.5
q0 -296 -359 -656zM573 717q101 113 161 241t60 228q0 83 -40 83q-85 0 -181 -552z" />
    <glyph glyph-name="afii61352" unicode="&#x2116;" horiz-adv-x="1814" 
d="M124 1365h266l449 -984v984h189v-1365h-211l-504 1093v-1093h-189v1365zM1764 691q0 -366 -298 -366q-139 0 -217 89.5t-78 268.5q0 358 298 358q144 0 219.5 -92t75.5 -258zM1585 683q0 242 -118 242q-117 0 -117 -242t118 -242q117 0 117 242zM1765 172v-172h-594v172
h594z" />
    <glyph glyph-name="estimated" unicode="&#x212e;" horiz-adv-x="1229" 
d="M321 531v-371q120 -121 298 -121q254 0 395 246l72 -43q-118 -170 -231.5 -223t-235.5 -53q-232 0 -380.5 158.5t-148.5 406.5q0 252 149.5 408.5t379.5 156.5q214 0 366 -142t163 -423h-827zM917 605v297q-124 121 -300 121q-175 0 -296 -122v-296h596z" />
    <glyph glyph-name="oneeighth" unicode="&#x215b;" horiz-adv-x="1569" 
d="M290 1373h126v-702h139v-125h-456v125h150v496q-70 -63 -154 -102v153q116 56 195 155zM1005 1365h146l-666 -1365h-146zM1317 443q159 -80 159 -214q0 -101 -81.5 -172t-225.5 -71q-141 0 -216.5 63t-75.5 166q0 133 158 202q-129 69 -129 190q0 94 72.5 160t205.5 66
q128 0 197 -60.5t69 -151.5q0 -113 -133 -178zM1194 493q102 44 102 122q0 45 -30.5 72.5t-82.5 27.5q-48 0 -79 -25.5t-31 -69.5q0 -82 121 -127zM1152 359q-117 -47 -117 -135q0 -57 40 -87t101 -30q55 0 94 27.5t39 76.5q0 43 -30.5 76t-126.5 72z" />
    <glyph glyph-name="threeeighths" unicode="&#x215c;" horiz-adv-x="1569" 
d="M174 1132l-148 32q63 216 283 216q125 0 195 -61.5t70 -161.5q0 -123 -127 -178q151 -52 151 -199q0 -113 -81.5 -180.5t-211.5 -67.5q-261 0 -302 236l152 33q23 -138 140 -138q122 0 122 126q0 122 -156 122h-68v120h68q70 0 105 23t35 86q0 112 -103 112
q-95 0 -124 -120zM1045 1365h146l-666 -1365h-146zM1349 443q159 -80 159 -214q0 -101 -81.5 -172t-225.5 -71q-141 0 -216.5 63t-75.5 166q0 133 158 202q-129 69 -129 190q0 94 72.5 160t205.5 66q128 0 197 -60.5t69 -151.5q0 -113 -133 -178zM1226 493q102 44 102 122
q0 45 -30.5 72.5t-82.5 27.5q-48 0 -79 -25.5t-31 -69.5q0 -82 121 -127zM1184 359q-117 -47 -117 -135q0 -57 40 -87t101 -30q55 0 94 27.5t39 76.5q0 43 -30.5 76t-126.5 72z" />
    <glyph glyph-name="fiveeighths" unicode="&#x215d;" horiz-adv-x="1569" 
d="M105 1365h475l-16 -141h-331l-11 -184q65 61 154 61q113 0 180 -73.5t67 -199.5q0 -140 -82 -218t-216 -78q-235 0 -283 220l153 35q29 -120 132 -120q126 0 126 156q0 146 -121 146q-90 0 -125 -88l-130 25zM1045 1365h146l-666 -1365h-146zM1358 443q159 -80 159 -214
q0 -101 -81.5 -172t-225.5 -71q-141 0 -216.5 63t-75.5 166q0 133 158 202q-129 69 -129 190q0 94 72.5 160t205.5 66q128 0 197 -60.5t69 -151.5q0 -113 -133 -178zM1235 493q102 44 102 122q0 45 -30.5 72.5t-82.5 27.5q-48 0 -79 -25.5t-31 -69.5q0 -82 121 -127z
M1193 359q-117 -47 -117 -135q0 -57 40 -87t101 -30q55 0 94 27.5t39 76.5q0 43 -30.5 76t-126.5 72z" />
    <glyph glyph-name="seveneighths" unicode="&#x215e;" horiz-adv-x="1569" 
d="M99 1365h522v-110q-234 -291 -234 -709h-182q0 382 247 675h-367zM948 1365h146l-666 -1365h-146zM1283 443q159 -80 159 -214q0 -101 -81.5 -172t-225.5 -71q-141 0 -216.5 63t-75.5 166q0 133 158 202q-129 69 -129 190q0 94 72.5 160t205.5 66q128 0 197 -60.5
t69 -151.5q0 -113 -133 -178zM1160 493q102 44 102 122q0 45 -30.5 72.5t-82.5 27.5q-48 0 -79 -25.5t-31 -69.5q0 -82 121 -127zM1118 359q-117 -47 -117 -135q0 -57 40 -87t101 -30q55 0 94 27.5t39 76.5q0 43 -30.5 76t-126.5 72z" />
    <glyph glyph-name="arrowleft" unicode="&#x2190;" horiz-adv-x="2048" 
d="M492 876h76q-81 -170 -195 -309h1595v-101h-1595q102 -102 198 -309h-78q-223 253 -414 341v45q177 71 413 333z" />
    <glyph glyph-name="arrowup" unicode="&#x2191;" horiz-adv-x="1024" 
d="M153 926q262 237 333 413h46q87 -191 340 -414v-77q-207 95 -309 197v-1474h-101v1474q-139 -114 -309 -195v76z" />
    <glyph glyph-name="arrowright" unicode="&#x2192;" horiz-adv-x="2048" 
d="M1555 876q237 -262 413 -333v-45q-191 -88 -414 -341h-77q95 207 197 309h-1595v101h1595q-114 139 -195 309h76z" />
    <glyph glyph-name="arrowdown" unicode="&#x2193;" horiz-adv-x="1024" 
d="M153 -16v76q170 -81 309 -195v1474h101v-1474q102 102 309 197v-77q-253 -223 -340 -414h-46q-71 176 -333 413z" />
    <glyph glyph-name="arrowboth" unicode="&#x2194;" horiz-adv-x="2048" 
d="M1968 540v-45q-181 -79 -406 -337h-80q69 172 194 311h-1305q125 -139 194 -311h-80q-224 258 -406 337v45q182 79 406 338h80q-69 -172 -194 -311h1305q-125 139 -194 311h80q225 -259 406 -338z" />
    <glyph glyph-name="arrowupdn" unicode="&#x2195;" horiz-adv-x="1024" 
d="M489 1463h45q79 -182 337 -407v-80q-171 69 -311 195v-1306q140 126 311 194v-79q-258 -225 -337 -407h-45q-79 182 -337 407v79q171 -68 311 -194v1306q-140 -126 -311 -195v80q258 225 337 407z" />
    <glyph glyph-name="arrowupdnbse" unicode="&#x21a8;" horiz-adv-x="1024" 
d="M489 1463h45q79 -182 337 -407v-80q-171 69 -311 195v-1306q140 126 311 194v-79q-258 -225 -337 -407h-45q-79 182 -337 407v79q171 -68 311 -194v1306q-140 -126 -311 -195v80q258 225 337 407zM154 -522h717v-98h-717v98z" />
    <glyph glyph-name="orthogonal" unicode="&#x221f;" horiz-adv-x="2005" 
d="M362 1279h100v-1179h1181v-100h-1281v1279z" />
    <glyph glyph-name="intersection" unicode="&#x2229;" horiz-adv-x="1472" 
d="M302 0h-110v473q0 265 13 373t76 210t188 171.5t267 69.5q144 0 268.5 -70t186 -167.5t76 -206.5t14.5 -380v-473h-109v480q0 232 -12 333t-60 182.5t-149.5 138.5t-214.5 57q-114 0 -215.5 -58t-148 -137t-58.5 -181.5t-12 -334.5v-480z" />
    <glyph glyph-name="equivalence" unicode="&#x2261;" horiz-adv-x="1046" 
d="M941 881h-837v166h837v-166zM941 599h-837v167h837v-167zM941 318h-837v167h837v-167z" />
    <glyph glyph-name="house" unicode="&#x2302;" horiz-adv-x="1229" 
d="M153 0v634l461 519l462 -519v-634h-923zM234 81h761v519l-381 427l-380 -427v-519z" />
    <glyph glyph-name="revlogicalnot" unicode="&#x2310;" horiz-adv-x="1046" 
d="M311 0h-232v546h887v-208h-655v-338z" />
    <glyph glyph-name="integraltp" unicode="&#x2320;" horiz-adv-x="1237" 
d="M691 -515h-145v1811q0 219 89.5 330t202.5 111q67 0 102.5 -32.5t35.5 -76.5q0 -40 -25.5 -66t-62.5 -26q-30 0 -57 15q-18 10 -41.5 46.5t-46.5 36.5q-17 0 -31 -12q-10 -8 -14 -27q-7 -33 -7 -139v-1971z" />
    <glyph glyph-name="integralbt" unicode="&#x2321;" horiz-adv-x="1237" 
d="M546 1737h145v-1811q0 -219 -89.5 -330t-202.5 -111q-67 0 -102.5 32.5t-35.5 76.5q0 40 25.5 66t61.5 26q31 0 59 -16q18 -10 41 -46t46 -36q17 0 31 11q10 8 14 29q7 32 7 138v1971z" />
    <glyph glyph-name="SF100000" unicode="&#x2500;" horiz-adv-x="1451" 
d="M1473 534h-1496v175h1496v-175z" />
    <glyph glyph-name="SF110000" unicode="&#x2502;" horiz-adv-x="1451" 
d="M638 -621v2485h175v-2485h-175z" />
    <glyph glyph-name="SF010000" unicode="&#x250c;" horiz-adv-x="1451" 
d="M1474 709v-175h-661v-1155h-175v1330h836z" />
    <glyph glyph-name="SF030000" unicode="&#x2510;" horiz-adv-x="1451" 
d="M637 534h-660v175h835v-1330h-175v1155z" />
    <glyph glyph-name="SF020000" unicode="&#x2514;" horiz-adv-x="1451" 
d="M638 534v1330h175v-1155h661v-175h-836z" />
    <glyph glyph-name="SF040000" unicode="&#x2518;" horiz-adv-x="1451" 
d="M812 534h-835v175h660v1155h175v-1330z" />
    <glyph glyph-name="SF080000" unicode="&#x251c;" horiz-adv-x="1451" 
d="M638 -621v2485h175v-1155h661v-175h-661v-1155h-175z" />
    <glyph glyph-name="SF090000" unicode="&#x2524;" horiz-adv-x="1451" 
d="M637 -621v1155h-660v175h660v1155h175v-2485h-175z" />
    <glyph glyph-name="SF060000" unicode="&#x252c;" horiz-adv-x="1451" 
d="M637 534h-660v175h1496v-175h-661v-1155h-175v1155z" />
    <glyph glyph-name="SF070000" unicode="&#x2534;" horiz-adv-x="1451" 
d="M1473 534h-1496v175h660v1155h175v-1155h661v-175z" />
    <glyph glyph-name="SF050000" unicode="&#x253c;" horiz-adv-x="1451" 
d="M637 534h-660v175h660v1155h175v-1155h661v-175h-661v-1155h-175v1155z" />
    <glyph glyph-name="SF430000" unicode="&#x2550;" horiz-adv-x="1451" 
d="M1473 724h-1496v175h1496v-175zM1473 344h-1496v175h1496v-175z" />
    <glyph glyph-name="SF240000" unicode="&#x2551;" horiz-adv-x="1451" 
d="M829 -621v2485h175v-2485h-175zM448 -621v2485h175v-2485h-175z" />
    <glyph glyph-name="SF510000" unicode="&#x2552;" horiz-adv-x="1451" 
d="M638 -621v1520h836v-175h-661v-205h661v-175h-661v-965h-175z" />
    <glyph glyph-name="SF520000" unicode="&#x2553;" horiz-adv-x="1451" 
d="M448 -621v1330h1027v-175h-471v-1155h-175v1155h-206v-1155h-175z" />
    <glyph glyph-name="SF390000" unicode="&#x2554;" horiz-adv-x="1451" 
d="M623 -621h-175v1520h1026v-175h-851v-1345zM1004 344v-965h-175v1140h645v-175h-470z" />
    <glyph glyph-name="SF220000" unicode="&#x2555;" horiz-adv-x="1451" 
d="M637 344h-660v175h660v205h-660v175h835v-1520h-175v965z" />
    <glyph glyph-name="SF210000" unicode="&#x2556;" horiz-adv-x="1451" 
d="M448 -621v1155h-471v175h1026v-1330h-175v1155h-206v-1155h-174z" />
    <glyph glyph-name="SF250000" unicode="&#x2557;" horiz-adv-x="1451" 
d="M828 -621v1345h-851v175h1026v-1520h-175zM447 344h-470v175h645v-1140h-175v965z" />
    <glyph glyph-name="SF500000" unicode="&#x2558;" horiz-adv-x="1451" 
d="M638 344v1520h175v-965h661v-175h-661v-205h661v-175h-836z" />
    <glyph glyph-name="SF490000" unicode="&#x2559;" horiz-adv-x="1451" 
d="M1475 534h-1027v1330h175v-1155h206v1155h175v-1155h471v-175z" />
    <glyph glyph-name="SF380000" unicode="&#x255a;" horiz-adv-x="1451" 
d="M623 1864v-1345h850v-175h-1025v1520h175zM1004 899h470v-175h-645v1140h175v-965z" />
    <glyph glyph-name="SF280000" unicode="&#x255b;" horiz-adv-x="1451" 
d="M812 344h-835v175h660v205h-660v175h660v965h175v-1520z" />
    <glyph glyph-name="SF270000" unicode="&#x255c;" horiz-adv-x="1451" 
d="M1003 534h-1026v175h470v1155h175v-1155h206v1155h175v-1330z" />
    <glyph glyph-name="SF260000" unicode="&#x255d;" horiz-adv-x="1451" 
d="M828 1864h175v-1520h-1026v175h851v1345zM447 899v965h175v-1140h-645v175h470z" />
    <glyph glyph-name="SF360000" unicode="&#x255e;" horiz-adv-x="1451" 
d="M638 -621v2485h175v-965h661v-175h-661v-205h661v-175h-661v-965h-175z" />
    <glyph glyph-name="SF370000" unicode="&#x255f;" horiz-adv-x="1451" 
d="M829 -621v2485h175v-1155h470v-175h-470v-1155h-175zM448 -621v2485h175v-2485h-175z" />
    <glyph glyph-name="SF420000" unicode="&#x2560;" horiz-adv-x="1451" 
d="M448 -621v2485h175v-2485h-175zM829 724v1140h175v-965h470v-175h-645zM829 -621v1140h645v-175h-470v-965h-175z" />
    <glyph glyph-name="SF190000" unicode="&#x2561;" horiz-adv-x="1451" 
d="M637 344h-660v175h660v205h-660v175h660v965h175v-2485h-175v965z" />
    <glyph glyph-name="SF200000" unicode="&#x2562;" horiz-adv-x="1451" 
d="M447 -621l1 1155h-471v175h470v1155h175v-2485h-175zM828 -621v2485h175v-2485h-175z" />
    <glyph glyph-name="SF230000" unicode="&#x2563;" horiz-adv-x="1451" 
d="M828 -621v2485h175v-2485h-175zM622 1864v-1140h-645v175h470v965h175zM447 344h-470v175h645v-1140h-175v965z" />
    <glyph glyph-name="SF470000" unicode="&#x2564;" horiz-adv-x="1451" 
d="M1473 724h-1496v175h1496v-175zM637 344h-660v175h1496v-175h-661v-965h-175v965z" />
    <glyph glyph-name="SF480000" unicode="&#x2565;" horiz-adv-x="1451" 
d="M447 -621v1155h-470v175h1496v-175h-470v-1155h-175v1155h-206v-1155h-175z" />
    <glyph glyph-name="SF410000" unicode="&#x2566;" horiz-adv-x="1451" 
d="M1473 724h-1496v175h1496v-175zM447 344h-470v175h645v-1140h-175v965zM828 -621v1140h645v-175h-470v-965h-175z" />
    <glyph glyph-name="SF450000" unicode="&#x2567;" horiz-adv-x="1451" 
d="M1473 724h-1496v175h660v965h175v-965h661v-175zM1473 344h-1496v175h1496v-175z" />
    <glyph glyph-name="SF460000" unicode="&#x2568;" horiz-adv-x="1451" 
d="M1473 534h-1496v175h470v1155h175v-1155h206v1155h175v-1155h470v-175z" />
    <glyph glyph-name="SF400000" unicode="&#x2569;" horiz-adv-x="1451" 
d="M622 724h-645v175h470v965h175v-1140zM1473 724h-645v1140h175v-965h470v-175zM1473 344h-1496v175h1496v-175z" />
    <glyph glyph-name="SF540000" unicode="&#x256a;" horiz-adv-x="1451" 
d="M637 344h-660v175h660v205h-660v175h660v965h175v-965h661v-175h-661v-205h661v-175h-661v-965h-175v965z" />
    <glyph glyph-name="SF530000" unicode="&#x256b;" horiz-adv-x="1451" 
d="M447 -621v1155h-470v175h470v1155h175v-1155h206v1155h175v-1155h470v-175h-470v-1155h-175v1155h-206v-1155h-175z" />
    <glyph glyph-name="SF440000" unicode="&#x256c;" horiz-adv-x="1451" 
d="M1003 899h470v-175h-645v1140h175v-965zM447 899v965h175v-1140h-645v175h470zM447 344h-470v175h645v-1140h-175v965zM1003 344v-965h-175v1140h645v-175h-470z" />
    <glyph glyph-name="upblock" unicode="&#x2580;" horiz-adv-x="1451" 
d="M1473 621h-1496v1243h1496v-1243z" />
    <glyph glyph-name="dnblock" unicode="&#x2584;" horiz-adv-x="1451" 
d="M1473 -621h-1496v1242h1496v-1242z" />
    <glyph glyph-name="block" unicode="&#x2588;" horiz-adv-x="1451" 
d="M-23 -621v2485h1496v-2485h-1496z" />
    <glyph glyph-name="lfblock" unicode="&#x258c;" horiz-adv-x="1451" 
d="M-23 -621v2485h748v-2485h-748z" />
    <glyph glyph-name="rtblock" unicode="&#x2590;" horiz-adv-x="1451" 
d="M726 -621v2485h748v-2485h-748z" />
    <glyph glyph-name="ltshade" unicode="&#x2591;" horiz-adv-x="1451" 
d="M0 1864h121v-125h-121v125zM482 1864h121v-125h-121v125zM965 1864h121v-125h-121v125zM241 1615h121v-125h-121v125zM723 1615h121v-125h-121v125zM1206 1615h121v-125h-121v125zM965 1366h121v-125h-121v125zM482 1366h121v-125h-121v125zM0 1366h121v-125h-121v125z
M1206 1117h121v-125h-121v125zM723 1117h121v-125h-121v125zM241 1117h121v-125h-121v125zM0 867h121v-125h-121v125zM482 867h121v-125h-121v125zM965 867h121v-125h-121v125zM1206 618h121v-125h-121v125zM723 618h121v-125h-121v125zM241 618h121v-125h-121v125zM0 369
h121v-125h-121v125zM482 369h121v-125h-121v125zM965 369h121v-125h-121v125zM241 120h121v-125h-121v125zM723 120h121v-125h-121v125zM1206 120h121v-125h-121v125zM965 -130h121v-125h-121v125zM482 -130h121v-125h-121v125zM0 -130h121v-125h-121v125zM241 -379h121
v-125h-121v125zM723 -379h121v-125h-121v125zM1206 -379h121v-125h-121v125z" />
    <glyph glyph-name="shade" unicode="&#x2592;" horiz-adv-x="1451" 
d="M121 1864h120v-125h-120v125zM362 1864h120v-125h-120v125zM603 1864h121v-125h-121v125zM844 1864h121v-125h-121v125zM1086 1864h120v-125h-120v125zM1327 1864h120v-125h-120v125zM0 1615h121v-125h-121v125zM241 1615h121v-125h-121v125zM482 1615h121v-125h-121v125
zM724 1615h120v-125h-120v125zM965 1615h121v-125h-121v125zM1206 1615h121v-125h-121v125zM121 1366h120v-125h-120v125zM362 1366h120v-125h-120v125zM603 1366h121v-125h-121v125zM844 1366h121v-125h-121v125zM1086 1366h120v-125h-120v125zM1327 1366h120v-125h-120
v125zM241 1116h121v-124h-121v124zM482 1116h121v-124h-121v124zM724 1116h120v-124h-120v124zM965 1116h121v-124h-121v124zM1206 1116h121v-124h-121v124zM0 1116h121v-124h-121v124zM121 867h120v-125h-120v125zM362 867h120v-125h-120v125zM603 867h121v-125h-121v125z
M844 867h121v-125h-121v125zM1086 867h120v-125h-120v125zM1327 867h120v-125h-120v125zM0 618h121v-125h-121v125zM482 618h121v-125h-121v125zM724 618h120v-125h-120v125zM965 618h121v-125h-121v125zM1206 618h121v-125h-121v125zM241 618h121v-125h-121v125zM1327 369
h120v-125h-120v125zM1086 369h120v-125h-120v125zM844 369h121v-125h-121v125zM603 369h121v-125h-121v125zM362 369h120v-125h-120v125zM121 369h120v-125h-120v125zM0 119h121v-124h-121v124zM241 119h121v-124h-121v124zM482 119h121v-124h-121v124zM724 119h120v-124
h-120v124zM965 119h121v-124h-121v124zM1206 119h121v-124h-121v124zM1327 -130h120v-125h-120v125zM1086 -130h120v-125h-120v125zM844 -130h121v-125h-121v125zM603 -130h121v-125h-121v125zM362 -130h120v-125h-120v125zM121 -130h120v-125h-120v125zM0 -379h121v-125
h-121v125zM241 -379h121v-125h-121v125zM482 -379h121v-125h-121v125zM724 -379h120v-125h-120v125zM965 -380l121 1v-125h-121v124zM1206 -379h121v-125h-121v125z" />
    <glyph glyph-name="dkshade" unicode="&#x2593;" horiz-adv-x="1451" 
d="M1447 1490v-374h-120v-124h120v-374h-120v-125h120v-374h-120v-124h120v-374h-120v-125h120v-124h-1447v373h121v125h-121v374h121v125h-121v373h121v125h-121v374h121v125h-121v373h121v125h120v-125h121v125h120v-125h121v125h121v-125h120v125h121v-125h121v125h120
v-125h121v125h120v-249h-120v-125h120zM121 1615v-125h120v125h-120zM362 1615v-125h120v125h-120zM603 1615v-125h121v125h-121zM844 1615v-125h121v125h-121zM1086 1615v-125h120v125h-120zM1327 1366h-121v-125h121v125zM1086 1366h-121v-125h121v125zM844 1366h-120
v-125h120v125zM603 1366h-121v-125h121v125zM362 1366h-121v-125h121v125zM121 1116v-124h120v124h-120zM362 1116v-124h120v124h-120zM603 1116v-124h121v124h-121zM844 1116v-124h121v124h-121zM1086 1116v-124h120v124h-120zM362 867h-121v-125h121v125zM482 867v-125
h121v125h-121zM724 867v-125h120v125h-120zM965 867v-125h121v125h-121zM1206 867v-125h121v125h-121zM121 618v-125h120v125h-120zM603 618v-125h121v125h-121zM482 493v125h-120v-125h120zM844 618v-125h121v125h-121zM1086 618v-125h120v125h-120zM1327 244v125h-121
v-125h121zM1086 244v125h-121v-125h121zM844 244v125h-120v-125h120zM603 244v125h-121v-125h121zM362 244v125h-121v-125h121zM121 119v-124h120v124h-120zM362 119v-124h120v124h-120zM603 119v-124h121v124h-121zM844 119v-124h121v124h-121zM1086 119v-124h120v124h-120
zM1327 -255v125h-121v-125h121zM1086 -255v125h-121v-125h121zM844 -255v125h-120v-125h120zM603 -255v125h-121v-125h121zM362 -255v125h-121v-125h121zM121 -379v-125h120v125h-120zM362 -379v-125h120v125h-120zM603 -379v-125h121v125h-121zM844 -379v-125h121v125h-121
zM1086 -379v-125h120v125h-120z" />
    <glyph glyph-name="filledbox" unicode="&#x25a0;" horiz-adv-x="1237" 
d="M146 944h944v-944h-944v944z" />
    <glyph glyph-name="H22073" unicode="&#x25a1;" horiz-adv-x="1237" 
d="M146 944h944v-944h-944v944zM222 868v-792h792v792h-792z" />
    <glyph glyph-name="H18543" unicode="&#x25aa;" horiz-adv-x="727" 
d="M635 948v-543h-543v543h543z" />
    <glyph glyph-name="H18551" unicode="&#x25ab;" horiz-adv-x="727" 
d="M635 948v-543h-543v543h543zM559 872h-391v-391h391v391z" />
    <glyph glyph-name="filledrect" unicode="&#x25ac;" horiz-adv-x="2048" 
d="M0 703h2047v-386h-2047v386z" />
    <glyph glyph-name="triagup" unicode="&#x25b2;" horiz-adv-x="2027" 
d="M304 0l710 1419l710 -1419h-1420z" />
    <glyph glyph-name="triagrt" unicode="&#x25ba;" horiz-adv-x="2027" 
d="M288 1417l1451 -724l-1451 -724v1448z" />
    <glyph glyph-name="triagdn" unicode="&#x25bc;" horiz-adv-x="2027" 
d="M1724 1388l-710 -1419l-710 1419h1420z" />
    <glyph glyph-name="triaglf" unicode="&#x25c4;" horiz-adv-x="2027" 
d="M1739 1417v-1448l-1451 724z" />
    <glyph glyph-name="circle" unicode="&#x25cb;" horiz-adv-x="1237" 
d="M619 1018q110 0 216 -57t165 -163t59 -220q0 -183 -129 -312t-311 -129q-183 0 -312 129t-129 312q0 115 59 220.5t165 162.5t217 57zM619 942q-93 0 -180 -47t-136 -135t-49 -182q0 -151 107 -258t258 -107t257.5 107t106.5 258q0 94 -49 182t-136 135t-179 47z" />
    <glyph glyph-name="H18533" unicode="&#x25cf;" horiz-adv-x="1237" 
d="M1059 578q0 -182 -129.5 -311.5t-310.5 -129.5q-183 0 -312 129t-129 312q0 182 129.5 311t311.5 129q181 0 310.5 -129.5t129.5 -310.5z" />
    <glyph glyph-name="invbullet" unicode="&#x25d8;" horiz-adv-x="1237" 
d="M128 0v980h980v-980h-980zM618 692q-84 0 -143 -59t-59 -143q0 -83 59.5 -142.5t142.5 -59.5q84 0 143 59.5t59 142.5q0 84 -59 143t-143 59z" />
    <glyph glyph-name="invcircle" unicode="&#x25d9;" horiz-adv-x="1237" 
d="M42 0v1155h1155v-1155h-1155zM619 1018q-111 0 -216.5 -57t-164.5 -163t-59 -221q0 -182 129 -311t311 -129q183 0 312 129t129 311q0 115 -59 221t-164.5 163t-217.5 57zM620 942q91 0 178.5 -47t136.5 -134.5t49 -183.5q0 -151 -106.5 -257.5t-257.5 -106.5
q-152 0 -258.5 106.5t-106.5 257.5q0 96 49 183.5t136.5 134.5t179.5 47z" />
    <glyph glyph-name="openbullet" unicode="&#x25e6;" horiz-adv-x="727" 
d="M649 676q0 -118 -83.5 -202t-201.5 -84t-202 84t-84 202t84 202t202 84t201.5 -84t83.5 -202zM574 676q0 87 -62 148.5t-148 61.5t-148 -61.5t-62 -148.5q0 -86 61.5 -148t148.5 -62t148.5 62t61.5 148z" />
    <glyph glyph-name="smileface" unicode="&#x263a;" horiz-adv-x="2048" 
d="M1024 1156q160 0 313 -82.5t239 -236t86 -319.5q0 -165 -84.5 -316.5t-236.5 -236t-317 -84.5q-166 0 -317.5 84.5t-236 236t-84.5 316.5q0 166 85.5 319.5t238.5 236t314 82.5zM1024 1063q-137 0 -267.5 -70.5t-204 -201.5t-73.5 -273q0 -141 72 -270.5t202 -201.5
t271 -72t271 72t202 201.5t72 270.5q0 142 -73.5 273t-204 201.5t-267.5 70.5zM779 731q34 0 57.5 -23.5t23.5 -57.5q0 -33 -23.5 -57t-57.5 -24q-33 0 -57 24t-24 57q0 34 24 57.5t57 23.5zM1268 731q34 0 57.5 -23.5t23.5 -57.5q0 -33 -23.5 -57t-57.5 -24q-33 0 -57 24
t-24 57q0 34 23.5 57.5t57.5 23.5zM730 313l62 36q79 -144 232 -144t231 144l63 -36q-50 -95 -123.5 -145t-170.5 -50q-98 0 -171 50t-123 145z" />
    <glyph glyph-name="invsmileface" unicode="&#x263b;" horiz-adv-x="2048" 
d="M1024 1156q160 0 313 -82.5t239 -236t86 -319.5q0 -165 -84.5 -316.5t-236.5 -236t-317 -84.5q-166 0 -317.5 84.5t-236 236t-84.5 316.5q0 166 85.5 319.5t238.5 236t314 82.5zM779 731q-33 0 -57 -23.5t-24 -57.5q0 -33 24 -57t57 -24q34 0 57.5 24t23.5 57
q0 34 -23.5 57.5t-57.5 23.5zM1268 731q-34 0 -57.5 -23.5t-23.5 -57.5q0 -33 24 -57t57 -24q34 0 57.5 24t23.5 57q0 34 -23.5 57.5t-57.5 23.5zM730 313q50 -95 123 -145t171 -50q97 0 170.5 50t123.5 145l-63 36q-78 -144 -231 -144t-232 144z" />
    <glyph glyph-name="sun" unicode="&#x263c;" horiz-adv-x="1877" 
d="M902 1621h76v-337q102 -7 181.5 -38.5t167.5 -102.5l290 284l52 -53l-286 -286q73 -95 103 -169q38 -96 41 -185h335v-69h-335q-19 -193 -143 -351l285 -291l-57 -50l-283 282q-98 -72 -171 -100.5t-180 -40.5v-337h-76v337q-112 15 -188.5 46t-156.5 92l-294 -278
l-51 51l285 286q-66 84 -100 166t-45 188h-336v69h336q9 106 42 185.5t102 163.5l-284 287l48 57l292 -282q101 70 179.5 100.5t170.5 38.5v337zM937 1211q-129 0 -252 -66t-191.5 -189.5t-68.5 -256.5t67.5 -255t189.5 -190t255 -68t255 68t190 190t68 255t-69 256.5
t-192 189.5t-252 66z" />
    <glyph glyph-name="female" unicode="&#x2640;" horiz-adv-x="1536" 
d="M796 461v-402h459v-59h-459v-439h-59v439h-460v59h460v402q-103 0 -225.5 65.5t-195 191t-72.5 265.5q0 136 69.5 261t193.5 194t261 69q136 0 260.5 -69.5t193.5 -194t69 -260.5q0 -209 -143.5 -360.5t-351.5 -161.5zM767 1451q-118 0 -230.5 -60.5t-175.5 -173.5
t-63 -235q0 -195 137.5 -332.5t331.5 -137.5q195 0 332.5 137.5t137.5 332.5q0 122 -63 235t-175.5 173.5t-231.5 60.5z" />
    <glyph glyph-name="male" unicode="&#x2642;" horiz-adv-x="1536" 
d="M1216 1620l36 -16l163 -666l-57 -15l-142 581l-358 -768q148 -75 224 -202t76 -272q0 -136 -69 -260.5t-193.5 -194t-261.5 -69.5q-136 0 -260.5 69.5t-193.5 194t-69 260.5q0 217 153.5 370t372.5 153q78 0 166 -27l360 771l-537 -265l-24 53zM634 731
q-118 0 -230.5 -60.5t-175.5 -173.5t-63 -235q0 -195 137.5 -332.5t331.5 -137.5q195 0 332.5 137.5t137.5 332.5q0 122 -63 235t-175.5 173.5t-231.5 60.5z" />
    <glyph glyph-name="spade" unicode="&#x2660;" horiz-adv-x="1344" 
d="M673 1231q26 -108 80 -193t192.5 -210.5t175.5 -193t37 -136.5q0 -95 -64 -159t-154 -64q-82 0 -154 57q-54 42 -101 133q1 -147 38.5 -233.5t119.5 -136t219 -58.5l7 -37h-792l7 37q184 0 285.5 107.5t97.5 320.5q-45 -95 -111.5 -142.5t-149.5 -47.5q-90 0 -155 65
t-65 154q0 74 32 133q45 83 146.5 166t149.5 137q74 83 107.5 148t51.5 153z" />
    <glyph glyph-name="club" unicode="&#x2663;" horiz-adv-x="1344" 
d="M1098 0h-848l8 34q165 35 219 69q81 51 132.5 151t51.5 210q0 16 -1 47q-61 -124 -148.5 -181t-178.5 -57q-116 0 -197 81t-81 199q0 116 74 195.5t165 81.5q63 -2 166 -53q-42 69 -54.5 105t-12.5 77q0 115 79 193.5t198 78.5q117 0 197.5 -78.5t80.5 -189.5
q0 -88 -69 -186q84 40 101 45q27 8 61 8q100 0 173.5 -78.5t73.5 -194.5q0 -120 -80.5 -201.5t-196.5 -82.5q-77 4 -134.5 33t-107.5 80q-35 37 -87 125q4 -159 48.5 -251.5t136.5 -153.5q62 -41 223 -72z" />
    <glyph glyph-name="heart" unicode="&#x2665;" horiz-adv-x="1344" 
d="M674 -24q-31 118 -88.5 221.5t-222.5 321.5q-121 160 -149 203q-46 70 -66.5 128.5t-20.5 118.5q0 111 74 186t180 76q113 -1 194 -79q61 -58 99 -173q32 112 92 171q83 81 191 81q109 0 184.5 -74t75.5 -176q0 -91 -43.5 -188t-170.5 -257q-164 -207 -239 -340
q-59 -105 -90 -220z" />
    <glyph glyph-name="diamond" unicode="&#x2666;" horiz-adv-x="1344" 
d="M671 1234q88 -154 218 -327q150 -200 242 -303q-74 -78 -242 -302q-136 -182 -218 -326q-27 52 -74 121q-81 120 -201 279q-26 35 -183 228q101 115 260 328q118 158 198 302z" />
    <glyph glyph-name="musicalnote" unicode="&#x266a;" horiz-adv-x="1024" 
d="M486 1363h38q172 0 227 -14q79 -20 139 -77q45 -42 71 -118.5t26 -178.5v-103h-99v43q0 68 -28.5 115.5t-84.5 72.5q-73 32 -162 32h-28v-835q0 -121 -32 -188.5t-110 -108t-170 -40.5q-109 0 -172.5 61.5t-63.5 161.5q0 105 76 176.5t199 71.5q78 0 174 -46v975z" />
    <glyph glyph-name="musicalnotedbl" unicode="&#x266b;" horiz-adv-x="1536" 
d="M534 1271l796 248v-1108q0 -124 -31.5 -187t-107 -104t-170.5 -41q-109 0 -174 62.5t-65 161.5q0 100 77 172.5t199 72.5q40 0 70.5 -7t99.5 -36v724l-595 -185v-836q0 -121 -32 -188.5t-110 -107.5t-170 -40q-109 0 -172.5 61.5t-63.5 160.5q0 105 76 176.5t199 71.5
q78 0 174 -46v975z" />
    <glyph glyph-name="fi1" unicode="&#xf001;" horiz-adv-x="977" 
d="M357 1010h177v-168h-177v-842h-204v842h-132v168h132q3 181 31.5 249.5t90.5 107t174 38.5q50 0 97 -8v-167q-27 4 -52 4q-65 0 -94.5 -22.5t-36 -56t-6.5 -145.5zM860 1146h-218v221h218v-221zM646 1010h209v-1010h-209v1010z" />
    <glyph glyph-name="fl1" unicode="&#xf002;" horiz-adv-x="977" 
d="M356 1010h177v-168h-177v-842h-204v842h-132v168h132q3 181 31.5 249.5t90.5 107t174 38.5q50 0 97 -8v-167q-27 4 -52 4q-65 0 -94.5 -22.5t-36 -56t-6.5 -145.5zM645 1365h209v-1365h-209v1365z" />
    <glyph glyph-name="foursuperior" unicode="&#xf003;" horiz-adv-x="696" 
d="M367 1380h186v-518h106v-127h-106v-189h-167v189h-337v114zM395 853v378l-208 -378h208z" />
    <glyph glyph-name="commaaccent" unicode="&#xf004;" horiz-adv-x="1024" 
d="M501 1365h191l-147 -382h-95z" />
    <glyph glyph-name="undercommaaccent" unicode="&#xf005;" horiz-adv-x="1024" 
d="M425 -109h191l-147 -369h-95z" />
    <glyph glyph-name="fivesuperior" horiz-adv-x="696" 
d="M105 1365h475l-16 -141h-331l-11 -184q65 61 154 61q113 0 180 -73.5t67 -199.5q0 -140 -82 -218t-216 -78q-235 0 -283 220l153 35q29 -120 132 -120q126 0 126 156q0 146 -121 146q-90 0 -125 -88l-130 25z" />
    <glyph glyph-name="sevensuperior" horiz-adv-x="696" 
d="M99 1365h522v-110q-234 -291 -234 -709h-182q0 382 247 675h-367z" />
    <glyph glyph-name="eightsuperior" horiz-adv-x="696" 
d="M488 989q159 -80 159 -214q0 -101 -81.5 -172t-225.5 -71q-141 0 -216.5 63t-75.5 166q0 133 158 202q-129 69 -129 190q0 94 72.5 160t205.5 66q128 0 197 -60.5t69 -151.5q0 -113 -133 -178zM365 1039q102 44 102 122q0 45 -30.5 72.5t-82.5 27.5q-48 0 -79 -25.5
t-31 -69.5q0 -82 121 -127zM323 905q-117 -47 -117 -135q0 -57 40 -87t101 -30q55 0 94 27.5t39 76.5q0 43 -30.5 76t-126.5 72z" />
    <glyph glyph-name="currency" unicode="&#xa4;" horiz-adv-x="1047" 
d="M699 992l141 141l115 -115l-141 -141q48 -80 48 -174q0 -90 -48 -172l142 -141l-119 -119l-141 141q-82 -47 -173 -47q-88 0 -173 48l-141 -141l-115 115l141 141q-50 82 -50 175t48 173l-142 142l118 118l142 -142q81 48 172 48q95 0 176 -50zM348 703
q0 -72 51.5 -123.5t123.5 -51.5q73 0 124.5 51.5t51.5 123.5q0 73 -51.5 124t-124.5 51q-72 0 -123.5 -51.5t-51.5 -123.5z" />
    </font>
</defs>
</svg>
